<?xml version="1.0" standalone="no"?>
<!DOCTYPE svg PUBLIC "-//W3C//DTD SVG 1.1//EN" "http://www.w3.org/Graphics/SVG/1.1/DTD/svg11.dtd">
<svg xmlns="http://www.w3.org/2000/svg">
<defs >
<font id="Barlow" horiz-adv-x="522" ><font-face
    font-family="Barlow SemiBold"
    units-per-em="1000"
    panose-1="0 0 7 0 0 0 0 0 0 0"
    ascent="1000"
    descent="-200"
    alphabetic="0" />
<glyph unicode=" " glyph-name="space" horiz-adv-x="200" />
<glyph unicode="!" glyph-name="exclam" horiz-adv-x="335" d="M129 236T126 239T122 248L111 688Q111 693 114 696T123 700H215Q220 700 223 697T227 688L216 248Q216 243 213 240T204 236H134Q129 236 126 239ZM132 2T113 22T93 73Q93 104 112 123T163 143Q194
143 214 124T234 73Q234 42 214 22T163 2Q132 2 113 22Z" />
<glyph unicode="&quot;" glyph-name="quotedbl" horiz-adv-x="325" d="M39 477T35 480T31 489L21 685Q21 697 32 697H120Q131 697 131 685L121 489Q121 484 117 481T108 477H44Q39 477 35 480ZM214 477T210 480T206 489L196 685Q196 697 207 697H295Q306 697 306
685L296 489Q296 484 292 481T283 477H219Q214 477 210 480Z" />
<glyph unicode="#" glyph-name="numbersign" horiz-adv-x="677" d="M620 420T617 417T608 413H534Q528 413 528 408L509 288Q509 283 513 283H572Q577 283 580 280T584 271V196Q584 191 581 188T572 184H498Q492 184 492 179L470 34Q469 23 457 23L365 24Q353
24 354 37L376 179Q376 184 372 184H252Q246 184 246 179L224 34Q223 23 211 23L119 24Q107 24 108 37L130 179Q130 184 126 184H68Q63 184 60 187T56 196V271Q56 276 59 279T68 283H141Q147 283 147 288L165 408Q165 413 161 413H105Q100 413 97 416T93 425V501Q93
506 96 509T105 513H177Q183 513 183 518L205 663Q206 674 218 674L310 673Q322 673 321 660L299 518Q299 513 303 513H423Q429 513 429 518L451 663Q452 674 464 674L556 673Q568 673 567 660L545 518Q545 513 549 513H609Q614 513 617 510T621 501L620 425Q620
420 617 417ZM393 283T393 288L411 408Q411 413 407 413H288Q282 413 282 408L263 288Q263 283 267 283H387Q393 283 393 288Z" />
<glyph unicode="$" glyph-name="dollar" horiz-adv-x="567" d="M523 109T474 58T338 -4Q333 -6 333 -10L334 -76Q334 -81 331 -84T322 -88H244Q239 -88 236 -85T232 -76L233 -9Q233 -5 228 -3Q141 11 92 62T42 193V218Q42 223 45 226T54 230H138Q143 230 146 227T150
218V199Q150 153 189 123T295 92Q354 92 383 118T413 185Q413 213 397 232T351 267T260 308Q193 334 151 357T81 419T53 518Q53 594 99 643T226 704Q231 706 231 710L229 784Q229 789 232 792T241 796H319Q324 796 327 793T331 784L329 709Q329 705 334 703Q419
689 468 635T518 502V485Q518 480 515 477T506 473H421Q416 473 413 476T409 485V496Q409 543 373 575T272 608Q219 608 190 585T161 520Q161 490 176 471T222 437T316 397Q384 370 424 348T494 287T523 188Q523 109 474 58Z" />
<glyph unicode="%" glyph-name="percent" horiz-adv-x="833" d="M185 404T150 424T94 480T73 557Q73 598 93 633T149 688T227 709Q268 709 303 689T359 633T380 557Q380 515 360 480T304 425T227 404Q185 404 150 424ZM187 0T185 4T186 14L563 692Q568 700 578
700H636Q643 700 645 696T644 686L268 8Q263 0 253 0H194Q187 0 185 4ZM261 474T284 498T308 557Q308 591 285 615T227 639Q192 639 168 615T144 557Q144 522 168 498T227 474Q261 474 284 498ZM570 -9T535 11T479 67T458 144Q458 185 478 220T534 275T612 296Q653
296 688 276T744 220T765 144Q765 102 745 67T689 12T612 -9Q570 -9 535 11ZM646 61T670 85T694 144Q694 178 670 202T612 226Q577 226 553 202T529 144Q529 109 553 85T612 61Q646 61 670 85Z" />
<glyph unicode="&amp;" glyph-name="ampersand" horiz-adv-x="688" d="M635 11T635 7Q635 0 625 0H522Q513 0 507 7L462 57Q459 60 455 57Q363 -8 253 -8Q161 -8 102 35T42 163Q42 231 79 278T181 365Q187 369 182 372Q129 436 112 471T95 544Q95 590 119 627T186
686T286 708Q344 708 389 687T459 626T485 536Q485 475 449 429T352 345Q347 342 351 338Q397 284 463 211Q466 207 470 211Q494 237 532 291Q538 302 548 295L616 256Q628 249 620 240Q578 176 537 130L536 128Q536 124 540 120Q576 78 610 40Q617 31 622 25T632
15Q635 11 635 7ZM254 602T233 583T211 533Q211 516 223 495T274 427Q277 423 281 426Q324 453 346 478T369 534Q369 565 347 583T289 602Q254 602 233 583ZM316 90T385 135Q389 139 385 142Q380 147 375 153T365 165Q352 180 322 214L299 240Q283 257 260 284Q258
287 253 285Q208 256 184 228T160 165Q160 131 185 111T254 90Q316 90 385 135Z" />
<glyph unicode="&apos;" glyph-name="quotesingle" horiz-adv-x="155" d="M39 480T35 483T31 492L21 687Q21 699 32 699H126Q137 699 137 687L126 492Q126 487 122 484T113 480H44Q39 480 35 483Z" />
<glyph unicode="(" glyph-name="parenleft" horiz-adv-x="316" d="M124 -96T120 -89Q65 -14 32 93T-2 330Q-2 460 31 568T121 753Q125 760 135 760H223Q230 760 232 756T232 746Q186 666 157 560T128 330Q128 208 157 103T232 -82Q234 -86 234 -88Q234 -96 223
-96H134Q124 -96 120 -89Z" />
<glyph unicode=")" glyph-name="parenright" horiz-adv-x="316" d="M193 760T197 753Q252 678 285 571T319 335Q319 206 285 97T195 -89Q191 -96 181 -96H93Q86 -96 84 -92T84 -82Q130 -2 159 104T188 334Q188 457 159 562T84 746Q82 750 82 752Q82 760 93 760H183Q193
760 197 753Z" />
<glyph unicode="*" glyph-name="asterisk" horiz-adv-x="398" d="M172 393T169 396T165 405V505Q165 508 163 509T159 509L67 455Q63 453 61 453Q54 453 50 460L28 500Q26 504 26 506Q26 513 33 517L126 568Q131 571 126 574L33 623Q28 625 27 630T28 640L50 680Q53
685 57 686T67 685L159 632Q161 631 163 632T165 636V735Q165 740 168 743T177 747H221Q226 747 229 744T233 735V636Q233 633 235 632T239 632L331 685Q335 687 337 687Q344 687 348 680L370 640Q372 636 372 633Q372 626 365 623L271 574Q266 571 271 568L365
517Q376 511 370 500L348 460Q345 455 341 454T331 455L239 509Q237 511 235 510T233 505V405Q233 400 230 397T221 393H177Q172 393 169 396Z" />
<glyph unicode="+" glyph-name="plus" horiz-adv-x="491" d="M451 355T454 352T458 343V267Q458 262 455 259T446 255H300Q295 255 295 250V106Q295 101 292 98T283 94H208Q203 94 200 97T196 106V250Q196 255 191 255H44Q39 255 36 258T32 267V343Q32 348 35
351T44 355H191Q196 355 196 360V508Q196 513 199 516T208 520H283Q288 520 291 517T295 508V360Q295 355 300 355H446Q451 355 454 352Z" />
<glyph unicode="," glyph-name="comma" horiz-adv-x="265" d="M49 -91T50 -78L87 146Q88 157 100 157H180Q193 157 190 144L131 -81Q128 -91 117 -91H61Q49 -91 50 -78Z" />
<glyph unicode="-" glyph-name="hyphen" horiz-adv-x="404" d="M39 251T36 254T32 263V339Q32 344 35 347T44 351H359Q364 351 367 348T371 339V263Q371 258 368 255T359 251H44Q39 251 36 254Z" />
<glyph unicode="." glyph-name="period" horiz-adv-x="273" d="M102 -2T82 18T62 69Q62 100 82 120T133 140Q164 140 183 120T203 69Q203 38 183 18T133 -2Q102 -2 82 18Z" />
<glyph unicode="/" glyph-name="slash" horiz-adv-x="447" d="M31 0T28 3T27 14L272 690Q275 700 285 700H376Q382 700 385 697T386 686L141 10Q138 0 128 0H37Q31 0 28 3Z" />
<glyph unicode="0" glyph-name="zero" horiz-adv-x="568" d="M178 -11T117 48T55 209V491Q55 591 116 649T283 708Q388 708 450 650T513 491V209Q513 108 451 49T283 -11Q178 -11 117 48ZM335 90T366 120T397 203V495Q397 547 366 577T283 608Q232 608 202 578T171
495V203Q171 151 201 121T283 90Q335 90 366 120Z" />
<glyph unicode="1" glyph-name="one" horiz-adv-x="353" d="M168 700T175 700H271Q276 700 279 697T283 688V12Q283 7 280 4T271 0H179Q174 0 171 3T167 12V580Q167 582 165 583T161 584L61 553Q59 552 56 552Q52 552 50 555T47 563L44 629Q44 639 52 643L160
697Q168 700 175 700Z" />
<glyph unicode="2" glyph-name="two" horiz-adv-x="551" d="M203 104T203 102T207 100H492Q497 100 500 97T504 88V12Q504 7 501 4T492 0H62Q57 0 54 3T50 12V84Q50 93 56 99Q132 180 232 298L279 353Q371 460 371 515Q371 556 342 582T267 608Q221 608 193 582T164
513V487Q164 482 161 479T152 475H59Q54 475 51 478T47 487V530Q49 584 78 624T156 686T267 708Q334 708 384 683T461 615T488 517Q488 435 401 328Q353 268 243 148L205 106Q203 104 203 102Z" />
<glyph unicode="3" glyph-name="three" horiz-adv-x="531" d="M480 285T480 223Q480 167 463 124Q440 61 387 27T259 -8Q185 -8 131 29T53 131Q41 162 39 212Q39 224 51 224H144Q156 224 156 212Q158 180 166 161Q175 129 199 111T259 92Q325 92 350 152Q363 181
363 227Q363 278 348 311Q322 367 258 367Q241 367 212 347Q208 345 205 345Q200 345 195 351L149 415Q146 420 146 423Q146 428 150 432L315 594Q317 596 316 598T312 600H62Q57 600 54 603T50 612V688Q50 693 53 696T62 700H461Q466 700 469 697T473 688V601Q473
592 467 586L324 442Q320 438 328 436Q421 423 460 333Q480 285 480 223Z" />
<glyph unicode="4" glyph-name="four" horiz-adv-x="585" d="M527 288T530 285T534 276V196Q534 191 531 188T522 184H480Q475 184 475 179V12Q475 7 472 4T463 0H371Q366 0 363 3T359 12V179Q359 184 354 184H50Q45 184 42 187T38 196V260Q38 266 41 275L230
691Q234 700 244 700H342Q349 700 351 697T351 686L173 294Q172 292 173 290T176 288H354Q359 288 359 293V429Q359 434 362 437T371 441H463Q468 441 471 438T475 429V293Q475 288 480 288H522Q527 288 530 285Z" />
<glyph unicode="5" glyph-name="five" horiz-adv-x="530" d="M491 269T491 221Q491 174 478 132Q457 68 401 31T270 -7Q196 -7 141 29T64 128Q56 150 51 178V180Q51 191 63 191H158Q168 191 171 180Q172 174 176 162Q187 129 211 111T269 93Q304 93 329 112T364
166Q373 190 373 221Q373 250 365 278Q358 311 333 328T272 346Q238 346 211 331T175 290Q171 280 161 280H64Q59 280 56 283T52 292V688Q52 693 55 696T64 700H453Q458 700 461 697T465 688V612Q465 607 462 604T453 600H173Q168 600 168 595L167 415Q167 411
169 411T173 412Q220 447 286 447Q356 447 407 412T478 314Q491 269 491 221Z" />
<glyph unicode="6" glyph-name="six" horiz-adv-x="529" d="M490 294T490 221Q490 160 470 114Q446 56 395 25T271 -7Q196 -7 143 27T67 124Q51 166 51 222V527Q51 581 78 622T153 685T265 708Q326 708 373 686T447 624T474 532V510Q474 505 471 502T462 498H370Q365
498 362 501T358 510V517Q358 557 332 582T264 608Q222 608 195 582T167 513V404Q167 401 169 400T173 401Q215 442 289 442Q348 442 392 417T463 345Q490 294 490 221ZM374 178T374 219Q374 264 357 296Q329 344 270 344Q208 344 182 294Q167 264 167 216Q167
175 180 149Q204 94 270 94Q333 94 359 148Q374 178 374 219Z" />
<glyph unicode="7" glyph-name="seven" horiz-adv-x="488" d="M120 0T125 14L346 594Q348 600 342 600H127Q122 600 122 595V550Q122 545 119 542T110 538H38Q33 538 30 541T26 550V688Q26 693 29 696T38 700H459Q464 700 467 697T471 688V608Q471 602 468 593L248
10Q245 0 234 0H135Q120 0 125 14Z" />
<glyph unicode="8" glyph-name="eight" horiz-adv-x="533" d="M487 259T487 202Q487 142 461 93Q435 46 385 19T267 -8Q200 -8 148 18T70 96Q44 143 44 203Q44 257 67 305Q87 346 124 367Q129 370 125 374Q100 392 80 424Q54 466 54 517Q54 580 91 630Q118 669
164 690T267 712Q326 712 370 691T442 630Q477 579 477 517Q477 462 450 421Q431 393 406 375Q402 371 406 368Q444 346 465 303Q487 259 487 202ZM169 535T169 515Q169 481 186 454Q210 413 266 413Q320 413 348 455Q363 477 363 516Q363 538 352 562Q339 585
317 598T265 612Q237 612 215 599T181 561Q169 535 169 515ZM370 162T370 212Q370 258 354 284Q329 330 266 330Q207 330 180 286Q163 259 163 211Q163 165 181 136Q208 92 267 92Q323 92 349 133Q370 162 370 212Z" />
<glyph unicode="9" glyph-name="nine" horiz-adv-x="527" d="M477 534T477 478V173Q477 119 450 78T375 15T263 -8Q202 -8 155 14T81 76T54 168V190Q54 195 57 198T66 202H158Q163 202 166 199T170 190V183Q170 143 196 118T263 92Q306 92 333 118T361 187V297Q361
300 359 301T355 300Q312 258 238 258Q179 258 135 283T65 355Q37 405 37 479Q37 540 57 586Q81 643 133 675T256 707Q331 707 384 673T461 576Q477 534 477 478ZM361 438T361 484Q361 522 348 551Q324 606 258 606Q194 606 168 552Q153 519 153 481Q153 436 171
404Q199 356 257 356Q319 356 345 406Q361 438 361 484Z" />
<glyph unicode=":" glyph-name="colon" horiz-adv-x="355" d="M145 338T125 358T105 409Q105 440 125 460T176 480Q207 480 226 460T246 409Q246 378 226 358T176 338Q145 338 125 358ZM145 8T125 28T105 79Q105 110 125 130T176 150Q207 150 226 130T246 79Q246
48 226 28T176 8Q145 8 125 28Z" />
<glyph unicode=";" glyph-name="semicolon" horiz-adv-x="314" d="M124 325T101 347T78 403Q78 434 102 456T159 479Q191 479 215 457T240 403Q240 371 217 348T159 325Q124 325 101 347ZM90 -89T87 -86T84 -76L109 143Q110 154 121 154H202Q216 154 213 141L163
-78Q160 -89 150 -89H96Q90 -89 87 -86Z" />
<glyph unicode="&lt;" glyph-name="less" horiz-adv-x="491" d="M458 38T454 36T444 36L41 218Q32 223 32 232V313Q32 323 41 327L444 509Q448 511 450 511Q458 511 458 500V413Q458 404 449 399L158 276Q152 273 158 270L449 146Q458 142 458 132V45Q458 38 454 36Z" />
<glyph unicode="=" glyph-name="equal" horiz-adv-x="491" d="M39 353T36 356T32 365V441Q32 446 35 449T44 453H446Q451 453 454 450T458 441V365Q458 360 455 357T446 353H44Q39 353 36 356ZM39 411T36 414T32 423V499Q32 504 35 507T44 511H446Q451 511 454
508T458 499V423Q458 418 455 415T446 411H44Q39 411 36 414Z" />
<glyph unicode="&gt;" glyph-name="greater" horiz-adv-x="491" d="M42 34T40 34Q32 34 32 45V132Q32 142 41 146L332 270Q338 273 332 276L41 399Q32 404 32 413V500Q32 507 36 509T46 509L449 327Q458 323 458 313V232Q458 223 449 218L46 36Q42 34 40 34Z" />
<glyph unicode="?" glyph-name="question" horiz-adv-x="500" d="M181 214T178 217T174 226V267Q174 315 198 344T268 407Q308 436 328 459T348 518Q348 557 321 580T250 604Q204 604 176 579T148 515V494Q148 483 136 483L44 487Q39 487 36 491T32 500V515Q32
572 60 616T138 685T253 710Q350 710 408 659T466 522Q466 478 451 446T415 394T359 349Q324 324 307 306T290 260V226Q290 221 287 218T278 214H186Q181 214 178 217ZM198 -1T178 19T158 70Q158 101 178 120T229 140Q260 140 279 121T299 70Q299 39 279 19T229
-1Q198 -1 178 19Z" />
<glyph unicode="@" glyph-name="at" horiz-adv-x="821" d="M550 643T622 605T733 499T773 340Q773 315 770 288Q757 192 710 139T588 86Q517 86 481 130Q478 133 474 130Q455 109 428 98T372 87Q317 87 282 114T240 185Q237 200 237 217Q237 239 242 271Q248 322
261 355Q278 403 316 429T401 455Q451 455 479 424Q484 419 485 426L487 440Q488 451 500 451H555Q567 451 566 438L540 245Q539 239 539 228Q539 198 553 179T595 159Q629 159 652 191T685 284Q689 309 689 337Q689 447 624 507T449 568Q367 568 297 532T182 427T130
263Q128 239 128 229Q128 156 157 101T239 15T366 -15Q414 -15 457 -4T525 24Q530 27 533 27Q536 27 541 22L572 -17Q575 -22 575 -25Q575 -30 570 -33Q534 -60 476 -76T356 -92Q265 -92 195 -52T86 61T47 231Q47 245 49 273Q59 384 116 468T263 597T455 643Q550
643 622 605ZM403 155T420 169T448 206Q454 218 457 231T463 272Q467 300 467 316Q467 325 465 337Q463 359 448 373T408 387Q383 387 364 373T335 337Q326 320 319 268Q315 241 315 225Q315 216 317 206Q320 183 336 169T379 155Q403 155 420 169Z" />
<glyph unicode="A" glyph-name="A" horiz-adv-x="648" d="M497 0T494 10L461 117Q459 121 456 121H192Q189 121 187 117L154 10Q151 0 141 0H41Q35 0 32 3T31 14L248 690Q251 700 261 700H386Q396 700 399 690L617 14Q618 12 618 9Q618 0 607 0H507Q497 0 494
10ZM217 212T222 212H425Q431 212 429 218L326 553Q325 557 323 557T320 553L218 218Q217 212 222 212Z" />
<glyph unicode="B" glyph-name="B" horiz-adv-x="622" d="M458 362T464 359Q566 311 566 194Q566 99 503 50T337 0H85Q80 0 77 3T73 12V688Q73 693 76 696T85 700H329Q438 700 497 653T556 511Q556 406 464 365Q458 362 464 359ZM189 600T189 595V410Q189 405
194 405H329Q382 405 412 430T443 501Q443 547 413 573T329 600H194Q189 600 189 595ZM389 101T419 129T450 205Q450 254 419 281T335 309H194Q189 309 189 304V106Q189 101 194 101H337Q389 101 419 129Z" />
<glyph unicode="C" glyph-name="C" horiz-adv-x="608" d="M232 -8T175 21T87 104T56 227V474Q56 544 87 597T175 679T307 708Q381 708 438 680T526 601T557 483Q557 478 554 475T545 471L453 466Q441 466 441 477Q441 536 405 572T307 608Q246 608 209 572T172
477V222Q172 164 209 128T307 92Q368 92 404 127T441 222Q441 233 453 233L545 229Q550 229 553 226T557 219Q557 151 526 100T438 20T307 -8Q232 -8 175 21Z" />
<glyph unicode="D" glyph-name="D" horiz-adv-x="618" d="M80 0T77 3T73 12V688Q73 693 76 696T85 700H329Q400 700 454 675T537 604T567 495V205Q567 143 538 97T454 25T329 0H85Q80 0 77 3ZM189 100T194 100H334Q387 100 418 133T451 223V476Q451 533 419 566T333
600H194Q189 600 189 595V105Q189 100 194 100Z" />
<glyph unicode="E" glyph-name="E" horiz-adv-x="592" d="M547 607T544 604T535 600H194Q189 600 189 595V408Q189 403 194 403H423Q428 403 431 400T435 391V315Q435 310 432 307T423 303H194Q189 303 189 298V105Q189 100 194 100H535Q540 100 543 97T547 88V12Q547
7 544 4T535 0H85Q80 0 77 3T73 12V688Q73 693 76 696T85 700H535Q540 700 543 697T547 688V612Q547 607 544 604Z" />
<glyph unicode="F" glyph-name="F" horiz-adv-x="563" d="M546 607T543 604T534 600H194Q189 600 189 595V408Q189 403 194 403H423Q428 403 431 400T435 391V315Q435 310 432 307T423 303H194Q189 303 189 298V12Q189 7 186 4T177 0H85Q80 0 77 3T73 12V688Q73
693 76 696T85 700H534Q539 700 542 697T546 688V612Q546 607 543 604Z" />
<glyph unicode="G" glyph-name="G" horiz-adv-x="613" d="M232 -8T175 21T87 105T56 229V471Q56 542 87 595T175 678T307 708Q381 708 437 679T525 600T556 487V479Q556 474 553 471T544 467H453Q448 467 445 470T441 479V484Q441 538 405 573T307 608Q246 608
209 572T172 475V225Q172 165 211 129T312 92Q372 92 406 123T441 210V272Q441 277 436 277H313Q308 277 305 280T301 289V363Q301 368 304 371T313 375H544Q549 375 552 372T556 363V235Q556 120 489 56T307 -8Q232 -8 175 21Z" />
<glyph unicode="H" glyph-name="H" horiz-adv-x="637" d="M454 693T457 696T466 700H558Q563 700 566 697T570 688V12Q570 7 567 4T558 0H466Q461 0 458 3T454 12V298Q454 303 449 303H194Q189 303 189 298V12Q189 7 186 4T177 0H85Q80 0 77 3T73 12V688Q73 693
76 696T85 700H177Q182 700 185 697T189 688V408Q189 403 194 403H449Q454 403 454 408V688Q454 693 457 696Z" />
<glyph unicode="I" glyph-name="I" horiz-adv-x="262" d="M80 0T77 3T73 12V688Q73 693 76 696T85 700H177Q182 700 185 697T189 688V12Q189 7 186 4T177 0H85Q80 0 77 3Z" />
<glyph unicode="J" glyph-name="J" horiz-adv-x="581" d="M192 -8T137 19T52 97T22 213V280Q22 285 25 288T34 292H126Q131 292 134 289T138 280V213Q138 159 172 126T265 92Q321 92 357 125T393 213V688Q393 693 396 696T405 700H496Q501 700 504 697T508 688V213Q508
147 478 97T392 20T265 -8Q192 -8 137 19Z" />
<glyph unicode="K" glyph-name="K" horiz-adv-x="620" d="M80 0T77 3T73 12V688Q73 693 76 696T85 700H177Q182 700 185 697T189 688V389Q189 386 191 385T195 386L455 693Q461 700 470 700H574Q584 700 584 693Q584 690 581 685L352 404Q349 400 351 397L597
14Q599 8 599 7Q599 0 589 0H484Q475 0 470 8L272 316Q268 322 265 317L191 231Q189 227 189 224V12Q189 7 186 4T177 0H85Q80 0 77 3Z" />
<glyph unicode="L" glyph-name="L" horiz-adv-x="571" d="M80 0T77 3T73 12V688Q73 693 76 696T85 700H177Q182 700 185 697T189 688V105Q189 100 194 100H529Q534 100 537 97T541 88V12Q541 7 538 4T529 0H85Q80 0 77 3Z" />
<glyph unicode="M" glyph-name="M" horiz-adv-x="715" d="M529 700T538 700H630Q635 700 638 697T642 688V12Q642 7 639 4T630 0H538Q533 0 530 3T526 12V489Q526 492 524 493T520 491L395 299Q390 291 381 291H335Q326 291 321 299L195 490Q194 493 192 492T189
488V12Q189 7 186 4T177 0H85Q80 0 77 3T73 12V688Q73 693 76 696T85 700H177Q186 700 191 692L354 445Q356 443 358 443T361 445L524 692Q529 700 538 700Z" />
<glyph unicode="N" glyph-name="N" horiz-adv-x="669" d="M480 693T483 696T492 700H584Q589 700 592 697T596 688V12Q596 7 593 4T584 0H495Q485 0 481 8L193 480Q191 483 189 483T187 478L189 12Q189 7 186 4T177 0H85Q80 0 77 3T73 12V688Q73 693 76 696T85
700H174Q184 700 188 692L475 220Q477 217 479 217T481 222L480 688Q480 693 483 696Z" />
<glyph unicode="O" glyph-name="O" horiz-adv-x="621" d="M235 -10T177 20T88 107T56 236V464Q56 536 88 591T177 677T310 708Q386 708 443 678T533 592T565 464V236Q565 163 533 107T444 21T310 -10Q235 -10 177 20ZM373 90T411 129T449 232V465Q449 530 411
569T310 608Q248 608 210 569T172 465V232Q172 168 210 129T310 90Q373 90 411 129Z" />
<glyph unicode="P" glyph-name="P" horiz-adv-x="595" d="M417 701T465 675T539 602T566 492Q566 431 539 384T463 312T348 286H188Q183 286 183 281V12Q183 7 180 4T171 0H79Q74 0 71 3T67 12V689Q67 694 70 697T79 701H354Q417 701 465 675ZM388 380T419 410T450
489Q450 539 419 570T337 601H188Q183 601 183 596V385Q183 380 188 380H337Q388 380 419 410Z" />
<glyph unicode="Q" glyph-name="Q" horiz-adv-x="587" d="M366 708T422 678T509 593T540 466V226Q540 138 491 77T356 -2Q352 -3 352 -8V-92Q352 -97 349 -100T340 -104H248Q243 -104 240 -101T236 -92V-8Q236 -4 231 -2Q147 15 97 76T47 226V466Q47 538 78 593T164
678T293 708Q366 708 422 678ZM424 472Q424 533 388 570T293 608Q235 608 199 571T163 472V228Q163 167 199 130T293 92Q352 92 388 129T424 228V472Z" />
<glyph unicode="R" glyph-name="R" horiz-adv-x="613" d="M456 0T452 9L320 297Q318 301 314 301H194Q189 301 189 296V12Q189 7 186 4T177 0H85Q80 0 77 3T73 12V688Q73 693 76 696T85 700H360Q421 700 468 675T541 603T567 496Q567 427 532 379T433 311Q431
311 430 309T430 305L571 14Q573 10 573 8Q573 0 562 0H466Q456 0 452 9ZM189 600T189 595V396Q189 391 194 391H344Q392 391 421 419T451 495Q451 542 422 571T344 600H194Q189 600 189 595Z" />
<glyph unicode="S" glyph-name="S" horiz-adv-x="591" d="M221 -8T163 17T74 87T42 193V218Q42 223 45 226T54 230H143Q148 230 151 227T155 218V199Q155 153 196 123T308 92Q369 92 400 118T431 185Q431 213 414 232T366 268T271 308Q200 334 156 357T83 419T53
518Q53 606 117 657T288 708Q363 708 420 682T510 610T542 502V485Q542 480 539 477T530 473H440Q435 473 432 476T428 485V496Q428 543 390 575T283 608Q228 608 198 585T167 520Q167 490 183 471T231 437T330 397Q401 370 443 348T516 287T547 188Q547 98 481
45T299 -8Q221 -8 163 17Z" />
<glyph unicode="T" glyph-name="T" horiz-adv-x="579" d="M538 700T541 697T545 688V611Q545 606 542 603T533 599H349Q344 599 344 594V12Q344 7 341 4T332 0H240Q235 0 232 3T228 12V594Q228 599 223 599H46Q41 599 38 602T34 611V688Q34 693 37 696T46 700H533Q538
700 541 697Z" />
<glyph unicode="U" glyph-name="U" horiz-adv-x="636" d="M244 -8T187 21T99 103T67 227V688Q67 693 70 696T79 700H171Q176 700 179 697T183 688V225Q183 166 220 129T318 92Q379 92 416 129T453 225V688Q453 693 456 696T465 700H557Q562 700 565 697T569 688V227Q569
157 538 104T450 21T318 -8Q244 -8 187 21Z" />
<glyph unicode="V" glyph-name="V" horiz-adv-x="610" d="M244 0T241 10L31 686L30 690Q30 700 41 700H140Q151 700 154 690L304 168Q305 165 307 165T310 168L459 690Q462 700 473 700H570Q576 700 579 696T580 686L367 10Q364 0 354 0H254Q244 0 241 10Z" />
<glyph unicode="W" glyph-name="W" horiz-adv-x="878" d="M211 0T208 10L26 687L25 691Q25 700 36 700H134Q145 700 148 690L262 234Q263 231 265 231T268 234L377 690Q380 700 390 700H486Q497 700 500 690L616 233Q617 230 619 230T622 233L734 690Q737 700
748 700H841Q855 700 852 687L679 10Q676 0 665 0H572Q561 0 558 10L441 487Q440 490 438 490T435 487L323 10Q320 0 310 0H222Q211 0 208 10Z" />
<glyph unicode="X" glyph-name="X" horiz-adv-x="616" d="M37 0T35 3T36 14L235 347Q237 350 235 353L36 686Q34 692 34 693Q34 700 44 700H144Q155 700 159 692L305 444Q308 438 311 444L458 692Q462 700 472 700H572Q579 700 581 697T580 686L381 353Q380 350
381 347L580 14Q582 8 582 7Q582 0 572 0H472Q462 0 458 8L311 255Q308 261 305 255L158 8Q154 0 144 0H44Q37 0 35 3Z" />
<glyph unicode="Y" glyph-name="Y" horiz-adv-x="599" d="M248 1T245 4T241 13V281Q241 285 240 287L34 686Q32 690 32 692Q32 700 43 700H142Q152 700 156 691L296 412Q299 408 302 412L443 691Q448 700 457 700H557Q564 700 566 696T566 686L359 287Q357 283
357 281V13Q357 8 354 5T345 1H253Q248 1 245 4Z" />
<glyph unicode="Z" glyph-name="Z" horiz-adv-x="554" d="M44 0T41 3T37 12V97Q37 104 42 112L379 594Q381 596 380 598T376 600H49Q44 600 41 603T37 612V688Q37 693 40 696T49 700H499Q504 700 507 697T511 688V603Q511 596 506 588L169 106Q167 104 168 102T172
100H499Q504 100 507 97T511 88V12Q511 7 508 4T499 0H49Q44 0 41 3Z" />
<glyph unicode="[" glyph-name="bracketleft" horiz-adv-x="403" d="M41 -138T38 -135T34 -126V779Q34 784 37 787T46 791H266Q271 791 274 788T278 779V703Q278 698 275 695T266 691H155Q150 691 150 686V-32Q150 -37 155 -37H267Q272 -37 275 -40T279 -49V-126Q279
-131 276 -134T267 -138H46Q41 -138 38 -135Z" />
<glyph unicode="\" glyph-name="backslash" horiz-adv-x="447" d="M420 12T420 9Q420 0 409 0H318Q308 0 305 10L61 686Q60 688 60 691Q60 700 71 700H161Q171 700 174 690L419 14Q420 12 420 9Z" />
<glyph unicode="]" glyph-name="bracketright" horiz-adv-x="403" d="M369 -131T366 -134T357 -138H137Q132 -138 129 -135T125 -126V-49Q125 -44 128 -41T137 -37H248Q253 -37 253 -32V686Q253 691 248 691H137Q132 691 129 694T125 703V779Q125 784 128 787T137
791H357Q362 791 365 788T369 779V-126Q369 -131 366 -134Z" />
<glyph unicode="^" glyph-name="asciicircum" horiz-adv-x="465" d="M32 301T37 315L178 690Q181 700 192 700H271Q282 700 285 690L427 315Q428 313 428 310Q428 301 417 301H343Q333 301 330 311L235 577Q234 580 232 580T229 577L135 311Q132 301 122 301H47Q32
301 37 315Z" />
<glyph unicode="_" glyph-name="underscore" horiz-adv-x="509" d="M29 0T26 3T22 12V77Q22 82 25 85T34 89H475Q480 89 483 86T487 77V12Q487 7 484 4T475 0H34Q29 0 26 3Z" />
<glyph unicode="`" glyph-name="grave" horiz-adv-x="219" d="M191 585T191 583Q191 575 181 575H115Q106 575 101 583L32 685Q30 689 30 692Q30 700 40 700H119Q130 700 134 692L189 589Q191 585 191 583Z" />
<glyph unicode="a" glyph-name="a" d="M320 519T368 497T442 437T468 349V12Q468 7 465 4T456 0H364Q359 0 356 3T352 12V44Q352 47 350 47T346 46Q297 -8 204 -8Q129 -8 81 30T32 143Q32 221 86 264T240 308H347Q352 308 352 313V337Q352 376 329 397T260 419Q222
419 199 406T169 368Q166 356 155 358L58 370Q53 371 50 373T47 380Q55 441 112 480T257 519Q320 519 368 497ZM282 84T317 110T352 176V223Q352 228 347 228H263Q210 228 180 208T149 151Q149 119 172 102T233 84Q282 84 317 110Z" />
<glyph unicode="b" glyph-name="b" horiz-adv-x="559" d="M510 323T510 257Q510 186 491 132Q469 66 420 29T300 -8Q230 -8 185 45Q183 48 181 47T179 43V12Q179 7 176 4T167 0H75Q70 0 67 3T63 12V688Q63 693 66 696T75 700H167Q172 700 175 697T179 688V471Q179
468 181 467T185 468Q228 519 299 519Q373 519 421 482T493 379Q510 323 510 257ZM391 182T391 255Q391 333 361 377Q334 419 281 419Q232 419 206 375Q181 334 181 256Q181 179 204 140Q230 92 282 92Q310 92 332 104T367 140Q391 182 391 255Z" />
<glyph unicode="c" glyph-name="c" horiz-adv-x="531" d="M198 -8T142 31T64 138Q48 183 48 258Q48 330 64 376Q85 442 141 480T275 519Q353 519 411 480T488 382Q493 366 495 350V348Q495 338 484 336L394 323H392Q383 323 380 333Q380 338 379 341Q377 349 375
355Q366 383 339 401T275 419Q237 419 211 400T175 346Q165 314 165 257Q165 202 174 168Q184 133 210 113T275 92Q313 92 340 111T376 164Q377 166 377 169Q378 170 378 172Q381 184 392 182L482 168Q487 167 490 164T493 154Q490 138 488 131Q469 67 411 30T275
-8Q198 -8 142 31Z" />
<glyph unicode="d" glyph-name="d" horiz-adv-x="559" d="M379 693T382 696T391 700H483Q488 700 491 697T495 688V12Q495 7 492 4T483 0H391Q386 0 383 3T379 12V42Q379 45 377 46T373 44Q329 -8 258 -8Q187 -8 138 29T67 132Q49 188 49 257Q49 328 66 379Q88
445 137 482T260 519Q329 519 373 469Q375 467 377 467T379 471V688Q379 693 382 696ZM378 181T378 256Q378 334 353 375Q326 419 277 419Q226 419 197 377Q167 333 167 255Q167 185 191 140Q219 92 276 92Q327 92 355 140Q378 181 378 256Z" />
<glyph unicode="e" glyph-name="e" horiz-adv-x="541" d="M497 288T497 257L496 226Q496 214 484 214H171Q166 214 166 209Q169 176 175 164Q199 92 292 91Q360 91 400 147Q404 153 410 153Q414 153 417 150L479 99Q488 92 482 83Q451 39 400 15T285 -9Q207 -9
153 26T73 124Q50 178 50 274Q50 332 62 368Q82 438 137 478T271 519Q468 519 493 313Q497 288 497 257ZM234 419T210 401T175 349Q169 332 167 305Q165 300 171 300H374Q379 300 379 305Q377 330 373 343Q364 379 338 399T271 419Q234 419 210 401Z" />
<glyph unicode="f" glyph-name="f" horiz-adv-x="376" d="M333 512T336 509T340 500V421Q340 416 337 413T328 409H229Q224 409 224 404V12Q224 7 221 4T212 0H120Q115 0 112 3T108 12V404Q108 409 103 409H41Q36 409 33 412T29 421V500Q29 505 32 508T41 512H103Q108
512 108 517V535Q108 600 125 635T181 686T291 700H326Q331 700 334 697T338 688V618Q338 613 335 610T326 606H300Q257 606 241 589T224 527V517Q224 512 229 512H328Q333 512 336 509Z" />
<glyph unicode="g" glyph-name="g" horiz-adv-x="549" d="M375 504T378 507T387 511H479Q484 511 487 508T491 499V34Q491 -91 420 -144T232 -198Q201 -198 171 -195Q160 -194 160 -182L163 -100Q163 -89 177 -89Q206 -92 229 -92Q304 -92 339 -63T375 37V45Q375
48 373 48T369 47Q328 3 253 3Q188 3 134 36T59 137Q46 184 46 258Q46 341 62 385Q82 446 131 482T246 519Q325 519 369 473Q371 470 373 471T375 475V499Q375 504 378 507ZM372 185T373 202T375 259Q375 297 374 313T367 346Q359 379 335 399T272 419Q236 419
211 399T175 346Q163 318 163 258Q163 196 173 171Q183 139 209 119T273 98Q312 98 336 118T368 170Q372 185 373 202Z" />
<glyph unicode="h" glyph-name="h" horiz-adv-x="544" d="M388 519T436 471T485 340V12Q485 7 482 4T473 0H381Q376 0 373 3T369 12V316Q369 362 343 390T274 419Q231 419 205 391T178 317V12Q178 7 175 4T166 0H74Q69 0 66 3T62 12V688Q62 693 65 696T74 700H166Q171
700 174 697T178 688V467Q178 464 180 463T183 465Q224 519 307 519Q388 519 436 471Z" />
<glyph unicode="i" glyph-name="i" horiz-adv-x="255" d="M97 581T77 601T57 652Q57 683 77 703T128 723Q159 723 179 703T199 652Q199 621 179 601T128 581Q97 581 77 601ZM75 0T72 3T68 12V500Q68 505 71 508T80 512H172Q177 512 180 509T184 500V12Q184 7 181
4T172 0H80Q75 0 72 3Z" />
<glyph unicode="j" glyph-name="j" horiz-adv-x="251" d="M93 581T73 601T53 652Q53 683 73 703T124 723Q155 723 175 703T195 652Q195 621 175 601T124 581Q93 581 73 601ZM-51 -205T-51 -193V-119Q-51 -107 -38 -108Q19 -109 43 -88T67 -17L66 499Q66 504 69
507T78 511H170Q175 511 178 508T182 499V-16Q182 -89 162 -130T94 -189T-39 -205Q-51 -205 -51 -193Z" />
<glyph unicode="k" glyph-name="k" d="M69 0T66 3T62 12V688Q62 693 65 696T74 700H166Q171 700 174 697T178 688V327Q178 324 180 323T184 325L346 504Q353 511 361 511H467Q477 511 477 504Q477 501 474 496L347 344Q344 341 346 337L496 14Q498 10 498 8Q498
0 487 0H390Q380 0 376 9L267 263Q266 265 264 265T260 264L180 172Q178 168 178 165V12Q178 7 175 4T166 0H74Q69 0 66 3Z" />
<glyph unicode="l" glyph-name="l" horiz-adv-x="239" d="M69 0T66 3T62 12V688Q62 693 65 696T74 700H166Q171 700 174 697T178 688V12Q178 7 175 4T166 0H74Q69 0 66 3Z" />
<glyph unicode="m" glyph-name="m" horiz-adv-x="829" d="M686 519T729 473T773 343V12Q773 7 770 4T761 0H670Q665 0 662 3T658 12V319Q658 365 634 392T568 419Q527 419 501 392T475 320V12Q475 7 472 4T463 0H372Q367 0 364 3T360 12V319Q360 365 335 392T269
419Q231 419 207 397T178 337V12Q178 7 175 4T166 0H74Q69 0 66 3T62 12V499Q62 504 65 507T74 511H166Q171 511 174 508T178 499V466Q178 463 180 462T184 464Q206 492 238 505T311 519Q360 519 397 499T454 441Q457 437 461 441Q483 481 522 500T609 519Q686
519 729 473Z" />
<glyph unicode="n" glyph-name="n" horiz-adv-x="544" d="M388 519T436 471T485 340V12Q485 7 482 4T473 0H381Q376 0 373 3T369 12V316Q369 362 343 390T274 419Q231 419 205 391T178 317V12Q178 7 175 4T166 0H74Q69 0 66 3T62 12V499Q62 504 65 507T74 511H166Q171
511 174 508T178 499V467Q178 464 180 463T183 465Q224 519 307 519Q388 519 436 471Z" />
<glyph unicode="o" glyph-name="o" horiz-adv-x="556" d="M200 -8T144 32T64 143Q47 197 47 257Q47 321 63 371Q86 441 143 480T280 519Q356 519 411 480T490 372Q508 324 508 258Q508 195 491 144Q468 73 412 33T279 -8Q200 -8 144 32ZM316 92T342 113T381 172Q391
205 391 256Q391 310 381 340Q370 378 343 398T277 419Q240 419 213 399T174 340Q164 305 164 256Q164 207 174 172Q185 134 212 113T279 92Q316 92 342 113Z" />
<glyph unicode="p" glyph-name="p" horiz-adv-x="563" d="M513 328T513 254Q513 183 496 132Q474 66 426 29T303 -8Q232 -8 189 43Q187 45 185 44T183 40V-177Q183 -182 180 -185T171 -189H79Q74 -189 71 -186T67 -177V499Q67 504 70 507T79 511H171Q176 511 179
508T183 499V469Q183 466 185 465T189 467Q233 519 304 519Q375 519 424 482T495 379Q513 328 513 254ZM395 180T395 256Q395 329 371 371Q343 420 286 420Q234 420 208 372Q185 333 185 256Q185 177 210 136Q236 92 285 92Q338 92 365 134Q395 180 395 256Z" />
<glyph unicode="q" glyph-name="q" horiz-adv-x="563" d="M379 504T382 507T391 511H483Q488 511 491 508T495 499V-177Q495 -182 492 -185T483 -189H391Q386 -189 383 -186T379 -177V40Q379 43 377 43T373 42Q329 -8 260 -8Q186 -8 137 29T66 132Q49 183 49 254Q49
324 67 379Q89 445 138 482T258 519Q329 519 373 467Q375 464 377 465T379 469V499Q379 504 382 507ZM378 177T378 256Q378 331 355 372Q327 420 276 420Q219 420 191 371Q167 326 167 256Q167 180 197 134Q226 92 277 92Q326 92 353 136Q378 177 378 256Z" />
<glyph unicode="r" glyph-name="r" horiz-adv-x="376" d="M332 517T356 504Q364 500 362 489L345 399Q344 387 331 392Q316 397 296 397Q283 397 276 396Q234 394 206 367T178 295V12Q178 7 175 4T166 0H74Q69 0 66 3T62 12V499Q62 504 65 507T74 511H166Q171
511 174 508T178 499V454Q178 450 179 450T183 452Q225 517 300 517Q332 517 356 504Z" />
<glyph unicode="s" glyph-name="s" horiz-adv-x="493" d="M189 -6T142 12T68 63T42 136V145Q42 150 45 153T54 157H142Q147 157 150 154T154 145V143Q154 118 181 100T251 81Q291 81 316 97T341 139Q341 162 321 173T254 198L216 210Q165 225 130 242T71 288T47
364Q47 434 102 475T247 517Q308 517 354 498T425 444T450 365Q450 360 447 357T438 353H353Q348 353 345 356T341 365Q341 391 316 408T246 426Q207 426 183 412T158 371Q158 347 181 335T260 307L282 301Q335 285 371 269T432 223T457 146Q457 75 401 35T252
-6Q189 -6 142 12Z" />
<glyph unicode="t" glyph-name="t" horiz-adv-x="374" d="M333 424T330 421T321 417H219Q214 417 214 412V171Q214 133 230 116T283 99H313Q318 99 321 96T325 87V12Q325 1 313 -1L261 -2Q182 -2 143 25T103 127V412Q103 417 98 417H41Q36 417 33 420T29 429V499Q29
504 32 507T41 511H98Q103 511 103 516V633Q103 638 106 641T115 645H202Q207 645 210 642T214 633V516Q214 511 219 511H321Q326 511 329 508T333 499V429Q333 424 330 421Z" />
<glyph unicode="u" glyph-name="u" horiz-adv-x="541" d="M364 504T367 507T376 511H467Q472 511 475 508T479 499V12Q479 7 476 4T467 0H376Q371 0 368 3T364 12V44Q364 47 362 48T358 46Q317 -7 235 -7Q159 -7 108 37T56 162V499Q56 504 59 507T68 511H160Q165
511 168 508T172 499V195Q172 148 196 120T265 92Q310 92 337 120T364 195V499Q364 504 367 507Z" />
<glyph unicode="v" glyph-name="v" horiz-adv-x="504" d="M190 0T187 10L26 498Q25 500 25 503Q25 512 36 512H138Q149 512 152 502L249 168Q250 165 252 165T255 168L352 502Q355 512 366 512L468 510Q474 510 477 507T478 496L318 10Q315 0 305 0H200Q190 0 187 10Z" />
<glyph unicode="w" glyph-name="w" horiz-adv-x="761" d="M172 0T169 10L26 498L25 502Q25 512 36 512H131Q142 512 145 502L228 168Q229 165 231 165T234 168L321 502Q324 512 335 512H418Q429 512 432 502L521 168Q522 165 524 165T527 168L616 502Q619 512
630 512L724 510Q730 510 732 507T734 497L590 10Q587 0 577 0H481Q470 0 467 10L379 315Q378 318 376 318T373 315L292 10Q289 0 278 0H183Q172 0 169 10Z" />
<glyph unicode="x" glyph-name="x" horiz-adv-x="516" d="M28 0T26 4T27 15L189 253Q191 256 189 259L27 496Q25 500 25 503Q25 511 35 511H133Q142 511 147 503L251 349Q253 347 255 347T258 349L362 503Q367 511 376 511H481Q488 511 490 507T489 496L327 259Q326
256 327 253L489 15Q491 11 491 8Q491 0 481 0H383Q374 0 369 8L265 162Q264 164 262 164T258 162L154 8Q149 0 140 0H35Q28 0 26 4Z" />
<glyph unicode="y" glyph-name="y" horiz-adv-x="489" d="M49 -199T47 -196T45 -187V-115Q45 -110 48 -107T57 -103H58Q99 -102 122 -95T160 -66T187 -3Q188 -1 187 3L22 498Q21 500 21 503Q21 512 31 512H129Q140 512 143 502L243 150Q244 147 246 147T249 150L349
502Q352 512 363 512H458Q464 512 466 509T467 498L291 -28Q266 -99 242 -134T177 -184T59 -199H52Q49 -199 47 -196Z" />
<glyph unicode="z" glyph-name="z" horiz-adv-x="455" d="M35 0T32 3T28 12V97Q28 106 33 111L279 400Q284 406 276 406H45Q40 406 37 409T33 418V499Q33 504 36 507T45 511H409Q414 511 417 508T421 499V414Q421 406 415 400L164 111Q160 105 167 105H412Q417
105 420 102T424 93V12Q424 7 421 4T412 0H40Q35 0 32 3Z" />
<glyph unicode="{" glyph-name="braceleft" horiz-adv-x="350" d="M103 -138T103 -18V193Q103 236 89 257T45 283Q34 285 34 295V364Q34 376 46 377Q75 381 89 402T103 465V671Q103 791 223 791H304Q309 791 312 788T316 779V703Q316 698 313 695T304 691H274Q248
691 234 674T219 624V451Q219 403 206 375T164 333Q158 330 164 327Q192 313 205 284T219 207V30Q219 -3 233 -20T274 -37H304Q309 -37 312 -40T316 -49V-126Q316 -131 313 -134T304 -138H223Q103 -138 103 -18Z" />
<glyph unicode="|" glyph-name="bar" horiz-adv-x="190" d="M44 -80T41 -77T37 -68V748Q37 753 40 756T49 760H141Q146 760 149 757T153 748V-68Q153 -73 150 -76T141 -80H49Q44 -80 41 -77Z" />
<glyph unicode="}" glyph-name="braceright" horiz-adv-x="350" d="M46 -138Q41 -138 38 -135T34 -126V-49Q34 -44 37 -41T46 -37H76Q102 -37 116 -20T131 30V207Q131 254 144 283T185 327Q191 330 185 333Q157 347 144 375T131 451V624Q131 656 117 673T76 691H46Q41
691 38 694T34 703V779Q34 784 37 787T46 791H126Q247 791 247 671V465Q247 423 261 402T304 377Q316 376 316 364V295Q316 285 305 283Q275 278 261 257T247 193V-18Q247 -138 126 -138H46Z" />
<glyph unicode="~" glyph-name="asciitilde" d="M325 212T306 219T259 241Q235 255 217 262T177 270Q135 270 109 232Q101 223 92 229L41 264Q32 270 36 280Q52 320 90 345T173 371Q198 371 216 365T259 345Q289 327 306 320T345 312Q364 312 378 321T405 349Q412
359 422 353L481 314Q490 308 486 298Q468 259 432 236T352 212Q325 212 306 219Z" />
<glyph unicode="&#xa0;" glyph-name="uni00A0" horiz-adv-x="200" />
<glyph unicode="&#xa1;" glyph-name="exclamdown" horiz-adv-x="335" d="M194 708T214 688T234 637Q234 606 214 587T163 567Q132 567 113 586T93 637Q93 668 112 688T163 708Q194 708 214 688ZM122 467T125 470T134 474H204Q209 474 212 471T216 462L227 22Q227
17 224 14T215 10H123Q118 10 115 13T111 22L122 462Q122 467 125 470Z" />
<glyph unicode="&#xa2;" glyph-name="cent" horiz-adv-x="531" d="M377 256T377 259Q378 260 378 262Q381 274 392 272L482 258Q487 257 490 254T493 244Q490 228 488 221Q472 167 428 132T323 86Q318 84 318 80L319 7Q319 2 316 -1T307 -5H229Q224 -5 221 -2T217
7L219 83Q219 88 215 89Q160 103 121 139T64 228Q48 273 48 348Q48 420 64 466Q80 518 119 553T213 602Q217 603 217 608L215 682Q215 687 218 690T227 694H305Q310 694 313 691T317 682L316 611Q316 607 321 605Q383 595 427 559T488 472Q493 456 495 440V438Q495
428 484 426L394 413H392Q383 413 380 423Q380 428 379 431Q377 439 375 445Q366 473 339 491T275 509Q237 509 211 490T175 436Q165 404 165 347Q165 292 174 258Q184 223 210 203T275 182Q313 182 340 201T376 254Q377 256 377 259Z" />
<glyph unicode="&#xa3;" glyph-name="sterling" horiz-adv-x="610" d="M275 146T235 106Q233 104 234 102T238 100H567Q572 100 575 97T579 88V12Q579 7 576 4T567 0H116Q111 0 108 3T104 12V91Q104 99 112 105Q159 137 159 209V290Q159 295 154 295H85Q80 295
77 298T73 307V377Q73 382 76 385T85 389H154Q159 389 159 394V498Q159 597 217 652T375 708Q450 708 501 669T575 560Q576 558 576 555Q576 549 566 546L481 530H478Q471 530 466 539Q453 576 431 592T375 608Q328 608 302 581T275 500V394Q275 389 280 389H464Q469
389 472 386T476 377V307Q476 302 473 299T464 295H280Q275 295 275 290V210Q275 146 235 106Z" />
<glyph unicode="&#xa4;" glyph-name="currency" horiz-adv-x="555" d="M487 248T458 196Q457 192 459 189L523 125Q527 121 527 116Q527 112 523 108L466 59Q462 55 457 55Q453 55 449 59L388 119Q386 122 381 120Q334 91 274 91Q218 91 171 118Q167 120 164 117L106
59Q102 55 98 55Q95 55 89 59L32 108Q28 111 28 116Q28 121 32 125L92 185Q95 188 93 192Q61 243 61 303Q61 361 91 410Q93 415 90 417L26 480Q22 484 22 489Q22 493 26 497L83 547Q87 551 92 551Q96 551 100 547L160 487Q163 485 167 486Q214 515 274 515Q336
515 385 483Q389 481 392 484L456 547Q460 551 464 551Q469 551 473 547L530 497Q534 493 534 489Q534 484 530 480L461 412Q459 410 460 405Q487 357 487 303Q487 248 458 196ZM161 257T194 224T274 190Q321 190 354 223T388 303Q387 349 354 382T274 416Q228
416 195 383T161 303Q161 257 194 224Z" />
<glyph unicode="&#xa5;" glyph-name="yen" horiz-adv-x="687" d="M610 700T612 696T612 686L433 342Q430 336 437 336H534Q539 336 542 333T546 324V282Q546 277 543 274T534 270H408Q403 270 403 265V205Q403 200 408 200H534Q539 200 542 197T546 188V146Q546
141 543 138T534 134H408Q403 134 403 129V13Q403 8 400 5T391 1H300Q295 1 292 4T288 13V129Q288 134 283 134H154Q149 134 146 137T142 146V188Q142 193 145 196T154 200H283Q288 200 288 205V265Q288 270 283 270H154Q149 270 146 273T142 282V324Q142 329 145
332T154 336H254Q261 336 258 342L80 686Q78 690 78 692Q78 700 89 700H188Q198 700 202 691L343 412Q346 408 349 412L489 691Q494 700 503 700H603Q610 700 612 696Z" />
<glyph unicode="&#xa6;" glyph-name="brokenbar" horiz-adv-x="190" d="M44 401T41 404T37 413V748Q37 753 40 756T49 760H141Q146 760 149 757T153 748V413Q153 408 150 405T141 401H49Q44 401 41 404ZM44 -80T41 -77T37 -68V267Q37 272 40 275T49 279H141Q146
279 149 276T153 267V-68Q153 -73 150 -76T141 -80H49Q44 -80 41 -77Z" />
<glyph unicode="&#xa7;" glyph-name="section" horiz-adv-x="479" d="M150 -208T101 -163T50 -41L49 -10Q49 -5 52 -2T61 2H153Q158 2 161 -1T165 -10V-23Q165 -62 185 -85T241 -108Q274 -108 295 -86T316 -31Q316 -4 301 13T263 41T191 70Q143 87 114 105T66
152Q42 190 42 242Q42 297 70 340Q96 377 138 392Q145 394 139 397Q98 417 73 454T47 540Q47 585 71 623T140 685T240 708Q294 708 337 687T404 627T429 539V518Q429 513 426 510T417 506H325Q320 506 317 509T313 518V527Q313 563 292 585T238 608Q205 608 184
586T163 530Q163 493 192 472T277 431Q315 419 345 405T396 366Q436 324 436 258Q436 204 409 161Q382 117 341 106Q337 105 337 104T340 100Q432 53 432 -42Q432 -91 407 -129T336 -187T235 -208Q150 -208 101 -163ZM286 166T306 199Q320 219 320 249Q320 282
304 303Q279 333 239 333Q218 333 200 323T171 295Q158 276 158 247Q158 218 171 199Q195 166 238 166Q286 166 306 199Z" />
<glyph unicode="&#xa8;" glyph-name="dieresis" horiz-adv-x="375" d="M252 586T232 606T212 657Q212 688 232 708T283 728Q314 728 333 708T353 657Q353 626 333 606T283 586Q252 586 232 606ZM62 586T42 606T22 657Q22 688 42 708T93 728Q124 728 143 708T163
657Q163 626 143 606T93 586Q62 586 42 606Z" />
<glyph unicode="&#xa9;" glyph-name="copyright" horiz-adv-x="835" d="M314 -8T232 38T103 167T56 352Q56 453 103 534T232 661T417 708Q520 708 603 662T732 534T779 352Q779 250 733 168T603 39T417 -8Q314 -8 232 38ZM497 71T561 107T662 208T698 352Q698
430 662 493T561 593T417 629Q337 629 273 593T173 494T137 352Q137 272 173 208T273 108T417 71Q497 71 561 107ZM365 173T333 203T300 283V419Q300 469 332 498T419 528Q473 528 505 500T537 424Q537 420 534 418T525 415L485 414Q473 414 473 423Q473 446 458
460T419 474Q394 474 380 460T365 423V278Q365 255 379 242T419 228Q443 228 458 242T473 278Q473 282 476 285T485 288L525 287Q537 287 537 278Q537 230 505 202T419 173Q365 173 333 203Z" />
<glyph unicode="&#xaa;" glyph-name="ordfeminine" horiz-adv-x="327" d="M222 566Q227 566 227 571V586Q227 616 209 634T157 652Q133 652 116 642T92 615Q89 604 79 605L38 609Q26 611 27 622Q33 660 69 684T157 708Q218 708 255 677T293 596V378Q293 373 290
370T281 366H239Q234 366 231 369T227 378V389Q227 392 225 393T221 391Q190 360 131 360Q79 360 48 384T17 456Q17 506 54 536T156 566H222ZM178 412T202 431T227 478V510Q227 515 222 515H164Q126 515 104 502T82 461Q82 436 98 424T143 412Q178 412 202 431ZM17
302T20 305T29 309H289Q294 309 297 306T301 297V250Q301 245 298 242T289 238H29Q24 238 21 241T17 250V297Q17 302 20 305Z" />
<glyph unicode="&#xab;" glyph-name="guillemotleft" horiz-adv-x="520" d="M278 118T278 115Q278 107 268 107H183Q174 107 169 115L64 273Q61 278 61 281Q61 286 64 289L169 447Q174 455 183 455H268Q275 455 277 451T276 440L169 284Q168 281 169 278L276 122Q278
118 278 115ZM445 118T445 115Q445 107 435 107H350Q341 107 336 115L231 273Q228 278 228 281Q228 286 231 289L336 447Q341 455 350 455H435Q442 455 444 451T443 440L337 284Q336 281 337 278L443 122Q445 118 445 115Z" />
<glyph unicode="&#xac;" glyph-name="logicalnot" horiz-adv-x="491" d="M32 348T35 351T44 355H446Q451 355 454 352T458 343V152Q458 147 455 144T446 140H370Q365 140 362 143T358 152V250Q358 255 353 255H44Q39 255 36 258T32 267V343Q32 348 35 351Z" />
<glyph unicode="&#xad;" glyph-name="uni00AD" horiz-adv-x="404" d="M39 251T36 254T32 263V339Q32 344 35 347T44 351H359Q364 351 367 348T371 339V263Q371 258 368 255T359 251H44Q39 251 36 254Z" />
<glyph unicode="&#xae;" glyph-name="registered" horiz-adv-x="447" d="M279 711T325 685T398 615T425 515Q425 458 399 412T326 340T223 313Q167 313 121 339T49 412T22 515Q22 570 48 614T121 685T223 711Q279 711 325 685ZM265 364T299 383T353 437T373 515Q373
555 353 588T299 641T223 661Q182 661 148 642T94 589T74 515Q74 472 93 438T147 384T223 364Q265 364 299 383ZM292 517T267 501Q263 500 265 495L287 436Q288 434 288 431Q288 422 277 422H258Q248 422 245 432L224 490Q222 494 219 494H213Q208 494 208 489V434Q208
429 205 426T196 422H179Q174 422 171 425T167 434V593Q167 598 170 601T179 605H235Q260 605 276 589T292 548Q292 517 267 501ZM208 570T208 565V530Q208 525 213 525H229Q239 525 245 531T251 547Q251 557 245 563T229 570H213Q208 570 208 565Z" />
<glyph unicode="&#xaf;" glyph-name="overscore" horiz-adv-x="285" d="M7 583T4 586T0 595V651Q0 656 3 659T12 663H273Q278 663 281 660T285 651V595Q285 590 282 587T273 583H12Q7 583 4 586Z" />
<glyph unicode="&#xb0;" glyph-name="degree" horiz-adv-x="378" d="M143 476T105 498T45 559T22 643Q22 688 44 726T105 786T189 808Q235 808 273 786T333 726T355 643Q355 597 333 559T273 499T189 476Q143 476 105 498ZM227 553T252 579T278 643Q278 681 253
707T189 733Q151 733 125 707T99 643Q99 605 125 579T189 553Q227 553 252 579Z" />
<glyph unicode="&#xb1;" glyph-name="plusminus" horiz-adv-x="491" d="M451 430T454 427T458 418V342Q458 337 455 334T446 330H300Q295 330 295 325V181Q295 176 292 173T283 169H208Q203 169 200 172T196 181V325Q196 330 191 330H44Q39 330 36 333T32 342V418Q32
423 35 426T44 430H191Q196 430 196 435V583Q196 588 199 591T208 595H283Q288 595 291 592T295 583V435Q295 430 300 430H446Q451 430 454 427ZM39 0T36 3T32 12V88Q32 93 35 96T44 100H446Q451 100 454 97T458 88V12Q458 7 455 4T446 0H44Q39 0 36 3Z" />
<glyph unicode="&#xb2;" glyph-name="uni00B2" horiz-adv-x="337" d="M40 425T37 428T33 437V481Q33 490 39 496Q110 570 169 638Q225 701 225 732Q225 755 209 769T166 784Q140 784 124 769T108 730V720Q108 715 105 712T96 708H43Q38 708 35 711T31 720V742Q33
791 71 820T166 850Q227 850 264 817T301 733Q301 708 289 681T251 622Q208 568 140 497Q138 495 139 493T143 491H299Q304 491 307 488T311 479V437Q311 432 308 429T299 425H45Q40 425 37 428Z" />
<glyph unicode="&#xb3;" glyph-name="uni00B3" horiz-adv-x="323" d="M296 600T296 559Q296 522 283 491Q268 457 236 438T161 419Q116 419 83 441T35 503Q28 524 26 547Q26 559 38 559H91Q103 559 104 547Q104 534 109 522Q114 505 128 495T161 485Q194 485 209
512Q220 532 220 561Q220 592 208 613Q195 640 161 640Q150 640 138 634Q136 633 132 633Q126 633 121 638L95 669Q92 672 92 676Q92 681 97 686L189 772Q191 774 191 776T187 778H46Q41 778 38 781T34 790V832Q34 837 37 840T46 844H280Q285 844 288 841T292 832V787Q292
778 286 772L205 692Q201 688 209 686Q258 678 283 629Q296 600 296 559Z" />
<glyph unicode="&#xb4;" glyph-name="acute" horiz-adv-x="219" d="M31 575T29 579T30 589L85 692Q89 700 100 700H179Q186 700 188 696T187 685L118 583Q113 575 104 575H38Q31 575 29 579Z" />
<glyph unicode="&#xb5;" glyph-name="uni00B5" horiz-adv-x="549" d="M369 504T372 507T381 511H473Q478 511 481 508T485 499V12Q485 7 482 4T473 0H381Q376 0 373 3T369 12V44Q369 47 367 48T363 46Q322 -7 241 -7Q209 -7 184 0Q178 2 178 -4V-188Q178 -193
175 -196T166 -200H74Q69 -200 66 -197T62 -188V499Q62 504 65 507T74 511H166Q171 511 174 508T178 499V177Q183 137 207 115T271 92Q311 92 337 115T369 178V499Q369 504 372 507Z" />
<glyph unicode="&#xb6;" glyph-name="paragraph" horiz-adv-x="608" d="M528 700Q533 700 536 697T540 688V-188Q540 -193 537 -196T528 -200H466Q461 -200 458 -197T454 -188V612Q454 617 449 617H342Q337 617 337 612V-188Q337 -193 334 -196T325 -200H262Q257
-200 254 -197T250 -188V245Q250 250 245 250Q182 255 133 285T57 364T29 475Q29 539 58 590T141 671T266 700H528Z" />
<glyph unicode="&#xb7;" glyph-name="middot" horiz-adv-x="226" d="M83 215T63 235T43 286Q43 317 63 337T114 357Q145 357 164 337T184 286Q184 255 164 235T114 215Q83 215 63 235Z" />
<glyph unicode="&#xb8;" glyph-name="cedilla" horiz-adv-x="159" d="M1 -178T2 -167L7 -129Q8 -117 22 -120Q32 -123 42 -123Q59 -123 70 -114T81 -87Q81 -53 33 -15Q28 -11 28 -6Q28 0 38 0H87Q96 0 102 -5Q159 -52 159 -104Q159 -116 156 -128Q147 -161 122
-175T63 -190Q34 -190 10 -182Q1 -178 2 -167Z" />
<glyph unicode="&#xb9;" glyph-name="uni00B9" horiz-adv-x="190" d="M78 845T85 845H142Q147 845 150 842T154 833V437Q154 432 151 429T142 425H89Q84 425 81 428T77 437V772Q77 776 72 776L36 772H34Q23 772 23 783V816Q23 826 33 829L70 842Q78 845 85 845Z" />
<glyph unicode="&#xba;" glyph-name="ordmasculine" horiz-adv-x="358" d="M132 365T97 390T45 460Q32 490 32 537Q32 585 44 615Q60 659 95 683T180 708Q226 708 260 684T311 616Q323 583 323 538Q323 495 311 460Q295 415 260 390T179 365Q132 365 97 390ZM200
429T216 442T240 478Q248 505 248 537Q248 574 241 595Q233 618 217 631T178 644Q156 644 140 631T115 595Q107 571 107 537Q107 508 115 478Q122 455 139 442T179 429Q200 429 216 442ZM34 237T31 240T27 249V299Q27 304 30 307T39 311H321Q326 311 329 308T333
299V249Q333 244 330 241T321 237H39Q34 237 31 240Z" />
<glyph unicode="&#xbb;" glyph-name="guillemotright" horiz-adv-x="520" d="M84 107T82 111T83 122L189 278Q191 281 189 284L83 440Q81 444 81 447Q81 455 91 455H175Q184 455 189 447L294 289Q297 286 297 281Q297 278 294 273L189 115Q184 107 175 107H91Q84
107 82 111ZM251 107T249 111T250 122L356 278Q358 281 356 284L250 440Q248 444 248 447Q248 455 258 455H342Q351 455 356 447L461 289Q464 286 464 281Q464 278 461 273L356 115Q351 107 342 107H258Q251 107 249 111Z" />
<glyph unicode="&#xbc;" glyph-name="onequarter" horiz-adv-x="819" d="M78 700T85 700H142Q147 700 150 697T154 688V292Q154 287 151 284T142 280H89Q84 280 81 283T77 292V627Q77 631 72 631L36 627H34Q23 627 23 638V671Q23 681 33 684L70 697Q78 700 85
700ZM108 0T106 3T107 14L512 692Q516 700 526 700H585Q592 700 594 697T593 686L189 8Q185 0 175 0H115Q108 0 106 3ZM775 177T778 174T782 165V120Q782 115 779 112T770 108H752Q747 108 747 103V12Q747 7 744 4T735 0H683Q678 0 675 3T671 12V103Q671 108 666
108H489Q484 108 481 111T477 120V156Q477 162 480 171L588 411Q592 420 602 420H657Q664 420 666 417T666 406L567 183Q566 181 567 179T570 177H666Q671 177 671 182V254Q671 259 674 262T683 266H735Q740 266 743 263T747 254V182Q747 177 752 177H770Q775 177
778 174Z" />
<glyph unicode="&#xbd;" glyph-name="onehalf" horiz-adv-x="800" d="M78 700T85 700H142Q147 700 150 697T154 688V292Q154 287 151 284T142 280H89Q84 280 81 283T77 292V627Q77 631 72 631L36 627H34Q23 627 23 638V671Q23 681 33 684L70 697Q78 700 85 700ZM108
0T106 3T107 14L512 692Q516 700 526 700H585Q592 700 594 697T593 686L189 8Q185 0 175 0H115Q108 0 106 3ZM495 0T492 3T488 12V56Q488 65 494 71Q565 145 624 213Q680 276 680 307Q680 330 664 344T621 359Q595 359 579 344T563 305V295Q563 290 560 287T551
283H498Q493 283 490 286T486 295V317Q488 366 526 395T621 425Q682 425 719 392T756 308Q756 283 744 256T706 197Q663 143 595 72Q593 70 594 68T598 66H754Q759 66 762 63T766 54V12Q766 7 763 4T754 0H500Q495 0 492 3Z" />
<glyph unicode="&#xbe;" glyph-name="threequarters" horiz-adv-x="911" d="M296 460T296 419Q296 382 283 351Q268 317 236 298T161 279Q116 279 83 301T35 363Q28 384 26 407Q26 419 38 419H91Q103 419 104 407Q104 394 109 382Q114 365 128 355T161 345Q194
345 209 372Q220 392 220 421Q220 452 208 473Q195 500 161 500Q150 500 138 494Q136 493 132 493Q126 493 121 498L95 529Q92 532 92 536Q92 541 97 546L189 632Q191 634 191 636T187 638H46Q41 638 38 641T34 650V692Q34 697 37 700T46 704H280Q285 704 288 701T292
692V647Q292 638 286 632L205 552Q201 548 209 546Q258 538 283 489Q296 460 296 419ZM202 0T200 3T201 14L606 692Q610 700 620 700H679Q686 700 688 697T687 686L283 8Q279 0 269 0H209Q202 0 200 3ZM870 177T873 174T877 165V120Q877 115 874 112T865 108H847Q842
108 842 103V12Q842 7 839 4T830 0H778Q773 0 770 3T766 12V103Q766 108 761 108H584Q579 108 576 111T572 120V156Q572 162 575 171L683 411Q687 420 697 420H752Q759 420 761 417T761 406L662 183Q661 181 662 179T665 177H761Q766 177 766 182V254Q766 259 769
262T778 266H830Q835 266 838 263T842 254V182Q842 177 847 177H865Q870 177 873 174Z" />
<glyph unicode="&#xbf;" glyph-name="questiondown" horiz-adv-x="500" d="M302 501T321 481T341 430Q341 399 322 380T271 360Q240 360 220 379T200 430Q200 461 220 481T271 501Q302 501 321 481ZM319 286T322 283T326 274V233Q326 200 313 175T282 133T232
93Q191 64 171 41T151 -18Q151 -57 178 -80T249 -104Q295 -104 323 -79T351 -15V6Q351 17 363 17L455 13Q460 13 463 9T467 0V-15Q467 -72 439 -116T361 -185T246 -210Q183 -210 135 -187T61 -121T34 -22Q34 23 49 54T85 106T140 151Q175 176 192 194T209 240V274Q209
279 212 282T221 286H314Q319 286 322 283Z" />
<glyph unicode="&#xc0;" glyph-name="Agrave" horiz-adv-x="648" d="M497 0T494 10L461 117Q459 121 456 121H192Q189 121 187 117L154 10Q151 0 141 0H41Q35 0 32 3T31 14L248 690Q251 700 261 700H386Q396 700 399 690L617 14Q618 12 618 9Q618 0 607 0H507Q497
0 494 10ZM217 212T222 212H425Q431 212 429 218L326 553Q325 557 323 557T320 553L218 218Q217 212 222 212ZM366 774T366 772Q366 764 356 764H290Q281 764 276 772L207 874Q205 878 205 881Q205 889 215 889H294Q305 889 309 881L364 778Q366 774 366 772Z"
/>
<glyph unicode="&#xc1;" glyph-name="Aacute" horiz-adv-x="648" d="M497 0T494 10L461 117Q459 121 456 121H192Q189 121 187 117L154 10Q151 0 141 0H41Q35 0 32 3T31 14L248 690Q251 700 261 700H386Q396 700 399 690L617 14Q618 12 618 9Q618 0 607 0H507Q497
0 494 10ZM217 212T222 212H425Q431 212 429 218L326 553Q325 557 323 557T320 553L218 218Q217 212 222 212ZM268 764T266 768T267 778L322 881Q326 889 337 889H416Q423 889 425 885T424 874L355 772Q350 764 341 764H275Q268 764 266 768Z" />
<glyph unicode="&#xc2;" glyph-name="Acircumflex" horiz-adv-x="648" d="M497 0T494 10L461 117Q459 121 456 121H192Q189 121 187 117L154 10Q151 0 141 0H41Q35 0 32 3T31 14L248 690Q251 700 261 700H386Q396 700 399 690L617 14Q618 12 618 9Q618 0 607 0H507Q497
0 494 10ZM217 212T222 212H425Q431 212 429 218L326 553Q325 557 323 557T320 553L218 218Q217 212 222 212ZM179 762T177 766T179 777L255 882Q260 889 269 889H374Q383 889 388 882L464 777Q467 773 467 769Q467 762 457 762H387Q378 762 373 770L326 837Q324
839 322 839T319 837L272 770Q267 762 258 762H187Q179 762 177 766Z" />
<glyph unicode="&#xc3;" glyph-name="Atilde" horiz-adv-x="648" d="M497 0T494 10L461 117Q459 121 456 121H192Q189 121 187 117L154 10Q151 0 141 0H41Q35 0 32 3T31 14L248 690Q251 700 261 700H386Q396 700 399 690L617 14Q618 12 618 9Q618 0 607 0H507Q497
0 494 10ZM217 212T222 212H425Q431 212 429 218L326 553Q325 557 323 557T320 553L218 218Q217 212 222 212ZM366 773T353 777T320 792Q317 794 306 799T286 807T270 810Q253 810 241 805T217 787Q212 782 207 782Q203 782 200 786L168 820Q160 828 166 836Q182
863 207 878T264 893Q284 893 298 888T335 870Q354 860 364 856T385 852Q415 852 435 877Q440 882 444 882Q449 882 452 878L481 844Q487 837 484 829Q471 803 445 788T385 773Q366 773 353 777Z" />
<glyph unicode="&#xc4;" glyph-name="Adieresis" horiz-adv-x="648" d="M497 0T494 10L461 117Q459 121 456 121H192Q189 121 187 117L154 10Q151 0 141 0H41Q35 0 32 3T31 14L248 690Q251 700 261 700H386Q396 700 399 690L617 14Q618 12 618 9Q618 0 607 0H507Q497
0 494 10ZM217 212T222 212H425Q431 212 429 218L326 553Q325 557 323 557T320 553L218 218Q217 212 222 212ZM387 775T367 795T347 846Q347 877 367 897T418 917Q449 917 468 897T488 846Q488 815 468 795T418 775Q387 775 367 795ZM197 775T177 795T157 846Q157
877 177 897T228 917Q259 917 278 897T298 846Q298 815 278 795T228 775Q197 775 177 795Z" />
<glyph unicode="&#xc5;" glyph-name="Aring" horiz-adv-x="648" d="M497 0T494 10L461 117Q459 121 456 121H192Q189 121 187 117L154 10Q151 0 141 0H41Q35 0 32 3T31 14L248 690Q251 700 261 700H386Q396 700 399 690L617 14Q618 12 618 9Q618 0 607 0H507Q497
0 494 10ZM217 212T222 212H425Q431 212 429 218L326 553Q325 557 323 557T320 553L218 218Q217 212 222 212ZM271 757T237 791T202 876Q202 926 236 960T322 994Q372 994 406 960T441 876Q441 826 407 792T322 757Q271 757 237 791ZM345 820T361 836T378 876Q378
900 362 916T322 932Q299 932 283 916T266 876Q266 853 282 837T322 820Q345 820 361 836Z" />
<glyph unicode="&#xc6;" glyph-name="AE" horiz-adv-x="946" d="M901 607T898 604T889 600H564Q559 600 559 595V408Q559 403 564 403H777Q782 403 785 400T789 391V315Q789 310 786 307T777 303H564Q559 303 559 298V105Q559 100 564 100H889Q894 100 897 97T901
88V12Q901 7 898 4T889 0H455Q450 0 447 3T443 12V116Q443 121 438 121H220Q215 121 214 117L159 9Q155 0 145 0H43Q36 0 34 3T34 14L382 691Q387 700 396 700H889Q894 700 897 697T901 688V612Q901 607 898 604ZM264 215T265 214T269 212H438Q443 212 443 217V557Q443
561 441 561T437 558L265 218Q264 215 265 214Z" />
<glyph unicode="&#xc7;" glyph-name="Ccedilla" horiz-adv-x="608" d="M557 476T554 474T545 471L453 466Q441 466 441 477Q441 536 405 572T307 608Q246 608 209 572T172 477V222Q172 164 209 128T307 92Q368 92 404 127T441 222Q441 233 453 233L545 229Q550
229 553 226T557 219Q557 123 496 62T331 -7Q328 -8 328 -10T329 -14Q374 -55 374 -101Q374 -114 371 -124Q362 -157 337 -171T278 -186Q255 -186 225 -178Q216 -174 217 -163L222 -124Q223 -111 237 -116Q248 -119 256 -119Q273 -119 284 -110T295 -81Q295 -62
280 -42T238 -2Q236 0 235 0T232 1Q150 21 103 81T56 227V474Q56 544 87 597T175 679T307 708Q381 708 438 680T526 601T557 483V478Q557 476 554 474Z" />
<glyph unicode="&#xc8;" glyph-name="Egrave" horiz-adv-x="592" d="M547 607T544 604T535 600H194Q189 600 189 595V408Q189 403 194 403H423Q428 403 431 400T435 391V315Q435 310 432 307T423 303H194Q189 303 189 298V105Q189 100 194 100H535Q540 100 543
97T547 88V12Q547 7 544 4T535 0H85Q80 0 77 3T73 12V688Q73 693 76 696T85 700H535Q540 700 543 697T547 688V612Q547 607 544 604ZM350 774T350 772Q350 764 340 764H274Q265 764 260 772L191 874Q189 878 189 881Q189 889 199 889H278Q289 889 293 881L348 778Q350
774 350 772Z" />
<glyph unicode="&#xc9;" glyph-name="Eacute" horiz-adv-x="592" d="M547 607T544 604T535 600H194Q189 600 189 595V408Q189 403 194 403H423Q428 403 431 400T435 391V315Q435 310 432 307T423 303H194Q189 303 189 298V105Q189 100 194 100H535Q540 100 543
97T547 88V12Q547 7 544 4T535 0H85Q80 0 77 3T73 12V688Q73 693 76 696T85 700H535Q540 700 543 697T547 688V612Q547 607 544 604ZM253 764T251 768T252 778L307 881Q311 889 322 889H401Q408 889 410 885T409 874L340 772Q335 764 326 764H260Q253 764 251 768Z"
/>
<glyph unicode="&#xca;" glyph-name="Ecircumflex" horiz-adv-x="592" d="M547 607T544 604T535 600H194Q189 600 189 595V408Q189 403 194 403H423Q428 403 431 400T435 391V315Q435 310 432 307T423 303H194Q189 303 189 298V105Q189 100 194 100H535Q540 100
543 97T547 88V12Q547 7 544 4T535 0H85Q80 0 77 3T73 12V688Q73 693 76 696T85 700H535Q540 700 543 697T547 688V612Q547 607 544 604ZM163 762T161 766T163 777L239 882Q244 889 253 889H358Q367 889 372 882L448 777Q451 773 451 769Q451 762 441 762H371Q362
762 357 770L310 837Q308 839 306 839T303 837L256 770Q251 762 242 762H171Q163 762 161 766Z" />
<glyph unicode="&#xcb;" glyph-name="Edieresis" horiz-adv-x="592" d="M547 607T544 604T535 600H194Q189 600 189 595V408Q189 403 194 403H423Q428 403 431 400T435 391V315Q435 310 432 307T423 303H194Q189 303 189 298V105Q189 100 194 100H535Q540 100
543 97T547 88V12Q547 7 544 4T535 0H85Q80 0 77 3T73 12V688Q73 693 76 696T85 700H535Q540 700 543 697T547 688V612Q547 607 544 604ZM371 775T351 795T331 846Q331 877 351 897T402 917Q433 917 452 897T472 846Q472 815 452 795T402 775Q371 775 351 795ZM181
775T161 795T141 846Q141 877 161 897T212 917Q243 917 262 897T282 846Q282 815 262 795T212 775Q181 775 161 795Z" />
<glyph unicode="&#xcc;" glyph-name="Igrave" horiz-adv-x="262" d="M80 0T77 3T73 12V688Q73 693 76 696T85 700H177Q182 700 185 697T189 688V12Q189 7 186 4T177 0H85Q80 0 77 3ZM175 774T175 772Q175 764 165 764H99Q90 764 85 772L16 874Q14 878 14 881Q14
889 24 889H103Q114 889 118 881L173 778Q175 774 175 772Z" />
<glyph unicode="&#xcd;" glyph-name="Iacute" horiz-adv-x="262" d="M80 0T77 3T73 12V688Q73 693 76 696T85 700H177Q182 700 185 697T189 688V12Q189 7 186 4T177 0H85Q80 0 77 3ZM77 764T75 768T76 778L131 881Q135 889 146 889H225Q232 889 234 885T233 874L164
772Q159 764 150 764H84Q77 764 75 768Z" />
<glyph unicode="&#xce;" glyph-name="Icircumflex" horiz-adv-x="262" d="M80 0T77 3T73 12V688Q73 693 76 696T85 700H177Q182 700 185 697T189 688V12Q189 7 186 4T177 0H85Q80 0 77 3ZM-13 762T-15 766T-13 777L63 882Q68 889 77 889H182Q191 889 196 882L272
777Q275 773 275 769Q275 762 265 762H195Q186 762 181 770L134 837Q132 839 130 839T127 837L80 770Q75 762 66 762H-5Q-13 762 -15 766Z" />
<glyph unicode="&#xcf;" glyph-name="Idieresis" horiz-adv-x="262" d="M80 0T77 3T73 12V688Q73 693 76 696T85 700H177Q182 700 185 697T189 688V12Q189 7 186 4T177 0H85Q80 0 77 3ZM195 775T175 795T155 846Q155 877 175 897T226 917Q257 917 276 897T296
846Q296 815 276 795T226 775Q195 775 175 795ZM5 775T-15 795T-35 846Q-35 877 -15 897T36 917Q67 917 86 897T106 846Q106 815 86 795T36 775Q5 775 -15 795Z" />
<glyph unicode="&#xd0;" glyph-name="Eth" horiz-adv-x="674" d="M457 700T511 675T594 604T624 495V205Q624 143 595 97T511 25T385 0H141Q136 0 133 3T129 12V317Q129 322 124 322H85Q80 322 77 325T73 334V390Q73 395 76 398T85 402H124Q129 402 129 407V688Q129
693 132 696T141 700H385Q457 700 511 675ZM508 476Q508 533 476 566T389 600H250Q245 600 245 595V407Q245 402 250 402H342Q347 402 350 399T354 390V334Q354 329 351 326T342 322H250Q245 322 245 317V105Q245 100 250 100H390Q443 100 474 133T508 223V476Z"
/>
<glyph unicode="&#xd1;" glyph-name="Ntilde" horiz-adv-x="669" d="M480 693T483 696T492 700H584Q589 700 592 697T596 688V12Q596 7 593 4T584 0H495Q485 0 481 8L193 480Q191 483 189 483T187 478L189 12Q189 7 186 4T177 0H85Q80 0 77 3T73 12V688Q73 693
76 696T85 700H174Q184 700 188 692L475 220Q477 217 479 217T481 222L480 688Q480 693 483 696ZM373 773T360 777T327 792Q324 794 313 799T293 807T277 810Q260 810 248 805T224 787Q219 782 214 782Q210 782 207 786L175 820Q167 828 173 836Q189 863 214 878T271
893Q291 893 305 888T342 870Q361 860 371 856T392 852Q422 852 442 877Q447 882 451 882Q456 882 459 878L488 844Q494 837 491 829Q478 803 452 788T392 773Q373 773 360 777Z" />
<glyph unicode="&#xd2;" glyph-name="Ograve" horiz-adv-x="621" d="M235 -10T177 20T88 107T56 236V464Q56 536 88 591T177 677T310 708Q386 708 443 678T533 592T565 464V236Q565 163 533 107T444 21T310 -10Q235 -10 177 20ZM373 90T411 129T449 232V465Q449
530 411 569T310 608Q248 608 210 569T172 465V232Q172 168 210 129T310 90Q373 90 411 129ZM354 774T354 772Q354 764 344 764H278Q269 764 264 772L195 874Q193 878 193 881Q193 889 203 889H282Q293 889 297 881L352 778Q354 774 354 772Z" />
<glyph unicode="&#xd3;" glyph-name="Oacute" horiz-adv-x="621" d="M235 -10T177 20T88 107T56 236V464Q56 536 88 591T177 677T310 708Q386 708 443 678T533 592T565 464V236Q565 163 533 107T444 21T310 -10Q235 -10 177 20ZM373 90T411 129T449 232V465Q449
530 411 569T310 608Q248 608 210 569T172 465V232Q172 168 210 129T310 90Q373 90 411 129ZM256 764T254 768T255 778L310 881Q314 889 325 889H404Q411 889 413 885T412 874L343 772Q338 764 329 764H263Q256 764 254 768Z" />
<glyph unicode="&#xd4;" glyph-name="Ocircumflex" horiz-adv-x="621" d="M235 -10T177 20T88 107T56 236V464Q56 536 88 591T177 677T310 708Q386 708 443 678T533 592T565 464V236Q565 163 533 107T444 21T310 -10Q235 -10 177 20ZM373 90T411 129T449 232V465Q449
530 411 569T310 608Q248 608 210 569T172 465V232Q172 168 210 129T310 90Q373 90 411 129ZM166 762T164 766T166 777L242 882Q247 889 256 889H361Q370 889 375 882L451 777Q454 773 454 769Q454 762 444 762H374Q365 762 360 770L313 837Q311 839 309 839T306
837L259 770Q254 762 245 762H174Q166 762 164 766Z" />
<glyph unicode="&#xd5;" glyph-name="Otilde" horiz-adv-x="621" d="M235 -10T177 20T88 107T56 236V464Q56 536 88 591T177 677T310 708Q386 708 443 678T533 592T565 464V236Q565 163 533 107T444 21T310 -10Q235 -10 177 20ZM373 90T411 129T449 232V465Q449
530 411 569T310 608Q248 608 210 569T172 465V232Q172 168 210 129T310 90Q373 90 411 129ZM354 773T341 777T308 792Q305 794 294 799T274 807T258 810Q241 810 229 805T205 787Q200 782 195 782Q191 782 188 786L156 820Q148 828 154 836Q170 863 195 878T252
893Q272 893 286 888T323 870Q342 860 352 856T373 852Q403 852 423 877Q428 882 432 882Q437 882 440 878L469 844Q475 837 472 829Q459 803 433 788T373 773Q354 773 341 777Z" />
<glyph unicode="&#xd6;" glyph-name="Odieresis" horiz-adv-x="621" d="M235 -10T177 20T88 107T56 236V464Q56 536 88 591T177 677T310 708Q386 708 443 678T533 592T565 464V236Q565 163 533 107T444 21T310 -10Q235 -10 177 20ZM373 90T411 129T449 232V465Q449
530 411 569T310 608Q248 608 210 569T172 465V232Q172 168 210 129T310 90Q373 90 411 129ZM374 775T354 795T334 846Q334 877 354 897T405 917Q436 917 455 897T475 846Q475 815 455 795T405 775Q374 775 354 795ZM184 775T164 795T144 846Q144 877 164 897T215
917Q246 917 265 897T285 846Q285 815 265 795T215 775Q184 775 164 795Z" />
<glyph unicode="&#xd7;" glyph-name="multiply" horiz-adv-x="437" d="M401 436T401 431Q401 427 397 423L294 320Q292 318 292 316T294 312L396 210Q400 207 400 202Q400 198 396 194L341 139Q337 135 333 135Q331 135 325 139L223 241Q221 243 219 243T215 241L112
138Q108 134 104 134Q102 134 96 138L42 192Q38 198 38 200Q38 204 42 208L145 311Q147 313 147 315T145 319L40 424Q36 430 36 433Q36 437 40 441L94 495Q98 499 103 499Q107 499 111 495L216 390Q218 388 220 388T224 390L327 493Q331 497 335 497Q340 497 343
493L397 439Q401 436 401 431Z" />
<glyph unicode="&#xd8;" glyph-name="Oslash" horiz-adv-x="622" d="M589 680T589 673Q589 668 587 665L538 592Q537 589 538 585Q566 532 566 464V236Q566 163 534 107T445 21T311 -10Q227 -10 165 27Q161 29 158 26L122 -29Q119 -34 114 -35T105 -33L35 11Q26
17 32 27L85 107Q86 110 85 114Q57 168 57 236V464Q57 536 88 591T177 677T311 708Q394 708 456 671Q460 670 463 673L500 729Q503 735 509 735Q514 735 517 732L584 682Q589 680 589 673ZM173 250Q173 247 175 246T179 248L397 575Q401 579 396 582Q362 608 311
608Q249 608 211 569T173 465V250ZM450 450Q450 453 448 454T444 452L224 123Q220 119 225 116Q261 90 311 90Q374 90 412 129T450 232V450Z" />
<glyph unicode="&#xd9;" glyph-name="Ugrave" horiz-adv-x="636" d="M244 -8T187 21T99 103T67 227V688Q67 693 70 696T79 700H171Q176 700 179 697T183 688V225Q183 166 220 129T318 92Q379 92 416 129T453 225V688Q453 693 456 696T465 700H557Q562 700 565
697T569 688V227Q569 157 538 104T450 21T318 -8Q244 -8 187 21ZM362 774T362 772Q362 764 352 764H286Q277 764 272 772L203 874Q201 878 201 881Q201 889 211 889H290Q301 889 305 881L360 778Q362 774 362 772Z" />
<glyph unicode="&#xda;" glyph-name="Uacute" horiz-adv-x="636" d="M244 -8T187 21T99 103T67 227V688Q67 693 70 696T79 700H171Q176 700 179 697T183 688V225Q183 166 220 129T318 92Q379 92 416 129T453 225V688Q453 693 456 696T465 700H557Q562 700 565
697T569 688V227Q569 157 538 104T450 21T318 -8Q244 -8 187 21ZM264 764T262 768T263 778L318 881Q322 889 333 889H412Q419 889 421 885T420 874L351 772Q346 764 337 764H271Q264 764 262 768Z" />
<glyph unicode="&#xdb;" glyph-name="Ucircumflex" horiz-adv-x="636" d="M244 -8T187 21T99 103T67 227V688Q67 693 70 696T79 700H171Q176 700 179 697T183 688V225Q183 166 220 129T318 92Q379 92 416 129T453 225V688Q453 693 456 696T465 700H557Q562 700
565 697T569 688V227Q569 157 538 104T450 21T318 -8Q244 -8 187 21ZM174 762T172 766T174 777L250 882Q255 889 264 889H369Q378 889 383 882L459 777Q462 773 462 769Q462 762 452 762H382Q373 762 368 770L321 837Q319 839 317 839T314 837L267 770Q262 762
253 762H182Q174 762 172 766Z" />
<glyph unicode="&#xdc;" glyph-name="Udieresis" horiz-adv-x="636" d="M244 -8T187 21T99 103T67 227V688Q67 693 70 696T79 700H171Q176 700 179 697T183 688V225Q183 166 220 129T318 92Q379 92 416 129T453 225V688Q453 693 456 696T465 700H557Q562 700 565
697T569 688V227Q569 157 538 104T450 21T318 -8Q244 -8 187 21ZM382 775T362 795T342 846Q342 877 362 897T413 917Q444 917 463 897T483 846Q483 815 463 795T413 775Q382 775 362 795ZM192 775T172 795T152 846Q152 877 172 897T223 917Q254 917 273 897T293
846Q293 815 273 795T223 775Q192 775 172 795Z" />
<glyph unicode="&#xdd;" glyph-name="Yacute" horiz-adv-x="599" d="M248 1T245 4T241 13V281Q241 285 240 287L34 686Q32 690 32 692Q32 700 43 700H142Q152 700 156 691L296 412Q299 408 302 412L443 691Q448 700 457 700H557Q564 700 566 696T566 686L359 287Q357
283 357 281V13Q357 8 354 5T345 1H253Q248 1 245 4ZM245 763T243 767T244 777L299 880Q303 888 314 888H393Q400 888 402 884T401 873L332 771Q327 763 318 763H252Q245 763 243 767Z" />
<glyph unicode="&#xde;" glyph-name="Thorn" horiz-adv-x="576" d="M398 555T446 529T520 456T547 348Q547 288 519 242T441 171T330 145H188Q183 145 183 140V12Q183 7 180 4T171 0H79Q74 0 71 3T67 12V688Q67 693 70 696T79 700H171Q176 700 179 697T183 688V560Q183
555 188 555H335Q398 555 446 529ZM369 240T400 268T431 346Q431 396 400 425T318 455H188Q183 455 183 450V245Q183 240 188 240H318Q369 240 400 268Z" />
<glyph unicode="&#xdf;" glyph-name="germandbls" horiz-adv-x="568" d="M70 1T67 4T63 13V493Q64 595 122 651T285 708Q386 708 448 657T511 518Q511 421 434 380Q428 377 434 374Q474 353 497 308T521 203Q521 107 458 54T279 0H236Q231 0 228 3T224 12V87Q224
92 227 95T236 99H290Q342 99 373 129T405 215Q405 268 376 298T299 329H251Q246 329 243 332T239 341V409Q239 414 242 417T251 421H297Q341 421 368 446T395 513Q395 555 369 582T292 609Q243 609 212 581T179 504V12Q179 7 176 4T167 0L75 1Q70 1 67 4Z" />
<glyph unicode="&#xe0;" glyph-name="agrave" d="M320 519T368 497T442 437T468 349V12Q468 7 465 4T456 0H364Q359 0 356 3T352 12V44Q352 47 350 47T346 46Q297 -8 204 -8Q129 -8 81 30T32 143Q32 221 86 264T240 308H347Q352 308 352 313V337Q352 376 329 397T260
419Q222 419 199 406T169 368Q166 356 155 358L58 370Q53 371 50 373T47 380Q55 441 112 480T257 519Q320 519 368 497ZM282 84T317 110T352 176V223Q352 228 347 228H263Q210 228 180 208T149 151Q149 119 172 102T233 84Q282 84 317 110ZM305 585T305 583Q305
575 295 575H229Q220 575 215 583L146 685Q144 689 144 692Q144 700 154 700H233Q244 700 248 692L303 589Q305 585 305 583Z" />
<glyph unicode="&#xe1;" glyph-name="aacute" d="M320 519T368 497T442 437T468 349V12Q468 7 465 4T456 0H364Q359 0 356 3T352 12V44Q352 47 350 47T346 46Q297 -8 204 -8Q129 -8 81 30T32 143Q32 221 86 264T240 308H347Q352 308 352 313V337Q352 376 329 397T260
419Q222 419 199 406T169 368Q166 356 155 358L58 370Q53 371 50 373T47 380Q55 441 112 480T257 519Q320 519 368 497ZM282 84T317 110T352 176V223Q352 228 347 228H263Q210 228 180 208T149 151Q149 119 172 102T233 84Q282 84 317 110ZM207 575T205 579T206
589L261 692Q265 700 276 700H355Q362 700 364 696T363 685L294 583Q289 575 280 575H214Q207 575 205 579Z" />
<glyph unicode="&#xe2;" glyph-name="acircumflex" d="M320 519T368 497T442 437T468 349V12Q468 7 465 4T456 0H364Q359 0 356 3T352 12V44Q352 47 350 47T346 46Q297 -8 204 -8Q129 -8 81 30T32 143Q32 221 86 264T240 308H347Q352 308 352 313V337Q352 376
329 397T260 419Q222 419 199 406T169 368Q166 356 155 358L58 370Q53 371 50 373T47 380Q55 441 112 480T257 519Q320 519 368 497ZM282 84T317 110T352 176V223Q352 228 347 228H263Q210 228 180 208T149 151Q149 119 172 102T233 84Q282 84 317 110ZM117 573T115
577T117 588L193 693Q198 700 207 700H312Q321 700 326 693L402 588Q405 584 405 580Q405 573 395 573H325Q316 573 311 581L264 648Q262 650 260 650T257 648L210 581Q205 573 196 573H125Q117 573 115 577Z" />
<glyph unicode="&#xe3;" glyph-name="atilde" d="M320 519T368 497T442 437T468 349V12Q468 7 465 4T456 0H364Q359 0 356 3T352 12V44Q352 47 350 47T346 46Q297 -8 204 -8Q129 -8 81 30T32 143Q32 221 86 264T240 308H347Q352 308 352 313V337Q352 376 329 397T260
419Q222 419 199 406T169 368Q166 356 155 358L58 370Q53 371 50 373T47 380Q55 441 112 480T257 519Q320 519 368 497ZM282 84T317 110T352 176V223Q352 228 347 228H263Q210 228 180 208T149 151Q149 119 172 102T233 84Q282 84 317 110ZM305 584T292 588T259
603Q256 605 245 610T225 618T209 621Q192 621 180 616T156 598Q151 593 146 593Q142 593 139 597L107 631Q99 639 105 647Q121 674 146 689T203 704Q223 704 237 699T274 681Q293 671 303 667T324 663Q354 663 374 688Q379 693 383 693Q388 693 391 689L420 655Q426
648 423 640Q410 614 384 599T324 584Q305 584 292 588Z" />
<glyph unicode="&#xe4;" glyph-name="adieresis" d="M320 519T368 497T442 437T468 349V12Q468 7 465 4T456 0H364Q359 0 356 3T352 12V44Q352 47 350 47T346 46Q297 -8 204 -8Q129 -8 81 30T32 143Q32 221 86 264T240 308H347Q352 308 352 313V337Q352 376 329
397T260 419Q222 419 199 406T169 368Q166 356 155 358L58 370Q53 371 50 373T47 380Q55 441 112 480T257 519Q320 519 368 497ZM282 84T317 110T352 176V223Q352 228 347 228H263Q210 228 180 208T149 151Q149 119 172 102T233 84Q282 84 317 110ZM325 586T305
606T285 657Q285 688 305 708T356 728Q387 728 406 708T426 657Q426 626 406 606T356 586Q325 586 305 606ZM135 586T115 606T95 657Q95 688 115 708T166 728Q197 728 216 708T236 657Q236 626 216 606T166 586Q135 586 115 606Z" />
<glyph unicode="&#xe5;" glyph-name="aring" d="M320 519T368 497T442 437T468 349V12Q468 7 465 4T456 0H364Q359 0 356 3T352 12V44Q352 47 350 47T346 46Q297 -8 204 -8Q129 -8 81 30T32 143Q32 221 86 264T240 308H347Q352 308 352 313V337Q352 376 329 397T260
419Q222 419 199 406T169 368Q166 356 155 358L58 370Q53 371 50 373T47 380Q55 441 112 480T257 519Q320 519 368 497ZM282 84T317 110T352 176V223Q352 228 347 228H263Q210 228 180 208T149 151Q149 119 172 102T233 84Q282 84 317 110ZM210 568T176 602T141
687Q141 737 175 771T261 805Q311 805 345 771T380 687Q380 637 346 603T261 568Q210 568 176 602ZM284 631T300 647T317 687Q317 711 301 727T261 743Q238 743 222 727T205 687Q205 664 221 648T261 631Q284 631 300 647Z" />
<glyph unicode="&#xe6;" glyph-name="ae" horiz-adv-x="836" d="M136 -8T84 28T32 138Q32 212 86 256T240 300H347Q352 300 352 305V331Q352 371 328 395T255 419Q220 419 196 406T164 368Q161 356 150 358L58 370Q53 371 50 374T47 384Q52 422 80 453T153 501T250
519Q305 519 350 496T414 440Q417 434 420 440Q440 471 482 495T575 519Q644 519 701 480T779 374Q792 330 792 227Q792 214 780 214H475Q470 214 470 209Q470 202 473 179Q478 139 511 118T593 97Q669 97 703 151Q709 162 719 154L773 113Q781 106 777 96Q750
51 699 22T580 -8Q525 -8 481 14T414 71Q411 76 409 72Q385 35 335 14T221 -8Q136 -8 84 28ZM469 300T474 300H671Q676 300 676 305Q674 333 671 343Q663 377 637 398T572 419Q534 419 508 398T474 343Q471 331 469 305Q469 300 474 300ZM284 80T318 104T352 173V209Q352
214 347 214H262Q209 214 179 197T148 147Q148 117 172 99T237 80Q284 80 318 104Z" />
<glyph unicode="&#xe7;" glyph-name="ccedilla" horiz-adv-x="531" d="M377 166T377 169Q378 170 378 172Q381 184 392 182L482 168Q487 167 490 164T493 154Q490 138 488 131Q472 76 427 41T319 -5Q312 -6 317 -11Q362 -55 362 -100Q362 -111 359 -123Q350 -156
325 -170T267 -185Q237 -185 213 -177Q204 -173 205 -162L210 -124Q211 -111 225 -116Q235 -119 244 -119Q261 -119 272 -110T283 -81Q283 -47 232 -6L226 -3Q167 7 125 44T64 138Q48 183 48 258Q48 330 64 376Q85 442 141 480T275 519Q353 519 411 480T488 382Q493
366 495 350V348Q495 338 484 336L394 323H392Q383 323 380 333Q380 338 379 341Q377 349 375 355Q366 383 339 401T275 419Q237 419 211 400T175 346Q165 314 165 257Q165 202 174 168Q184 133 210 113T275 92Q313 92 340 111T376 164Q377 166 377 169Z" />
<glyph unicode="&#xe8;" glyph-name="egrave" horiz-adv-x="540" d="M497 288T497 257L496 226Q496 214 484 214H171Q166 214 166 209Q169 176 175 164Q199 92 292 91Q360 91 400 147Q404 153 410 153Q414 153 417 150L479 99Q488 92 482 83Q451 39 400 15T285
-9Q207 -9 153 26T73 124Q50 178 50 274Q50 332 62 368Q82 438 137 478T271 519Q468 519 493 313Q497 288 497 257ZM234 419T210 401T175 349Q169 332 167 305Q165 300 171 300H374Q379 300 379 305Q377 330 373 343Q364 379 338 399T271 419Q234 419 210 401ZM313
585T313 583Q313 575 303 575H237Q228 575 223 583L154 685Q152 689 152 692Q152 700 162 700H241Q252 700 256 692L311 589Q313 585 313 583Z" />
<glyph unicode="&#xe9;" glyph-name="eacute" horiz-adv-x="540" d="M497 288T497 257L496 226Q496 214 484 214H171Q166 214 166 209Q169 176 175 164Q199 92 292 91Q360 91 400 147Q404 153 410 153Q414 153 417 150L479 99Q488 92 482 83Q451 39 400 15T285
-9Q207 -9 153 26T73 124Q50 178 50 274Q50 332 62 368Q82 438 137 478T271 519Q468 519 493 313Q497 288 497 257ZM234 419T210 401T175 349Q169 332 167 305Q165 300 171 300H374Q379 300 379 305Q377 330 373 343Q364 379 338 399T271 419Q234 419 210 401ZM215
575T213 579T214 589L269 692Q273 700 284 700H363Q370 700 372 696T371 685L302 583Q297 575 288 575H222Q215 575 213 579Z" />
<glyph unicode="&#xea;" glyph-name="ecircumflex" horiz-adv-x="540" d="M497 288T497 257L496 226Q496 214 484 214H171Q166 214 166 209Q169 176 175 164Q199 92 292 91Q360 91 400 147Q404 153 410 153Q414 153 417 150L479 99Q488 92 482 83Q451 39 400 15T285
-9Q207 -9 153 26T73 124Q50 178 50 274Q50 332 62 368Q82 438 137 478T271 519Q468 519 493 313Q497 288 497 257ZM234 419T210 401T175 349Q169 332 167 305Q165 300 171 300H374Q379 300 379 305Q377 330 373 343Q364 379 338 399T271 419Q234 419 210 401ZM126
573T124 577T126 588L202 693Q207 700 216 700H321Q330 700 335 693L411 588Q414 584 414 580Q414 573 404 573H334Q325 573 320 581L273 648Q271 650 269 650T266 648L219 581Q214 573 205 573H134Q126 573 124 577Z" />
<glyph unicode="&#xeb;" glyph-name="edieresis" horiz-adv-x="540" d="M497 288T497 257L496 226Q496 214 484 214H171Q166 214 166 209Q169 176 175 164Q199 92 292 91Q360 91 400 147Q404 153 410 153Q414 153 417 150L479 99Q488 92 482 83Q451 39 400 15T285
-9Q207 -9 153 26T73 124Q50 178 50 274Q50 332 62 368Q82 438 137 478T271 519Q468 519 493 313Q497 288 497 257ZM234 419T210 401T175 349Q169 332 167 305Q165 300 171 300H374Q379 300 379 305Q377 330 373 343Q364 379 338 399T271 419Q234 419 210 401ZM334
586T314 606T294 657Q294 688 314 708T365 728Q396 728 415 708T435 657Q435 626 415 606T365 586Q334 586 314 606ZM144 586T124 606T104 657Q104 688 124 708T175 728Q206 728 225 708T245 657Q245 626 225 606T175 586Q144 586 124 606Z" />
<glyph unicode="&#xec;" glyph-name="igrave" horiz-adv-x="228" d="M63 0T60 3T56 12V499Q56 504 59 507T68 511H160Q165 511 168 508T172 499V12Q172 7 169 4T160 0H68Q63 0 60 3ZM158 585T158 583Q158 575 148 575H82Q73 575 68 583L-1 685Q-3 689 -3 692Q-3
700 7 700H86Q97 700 101 692L156 589Q158 585 158 583Z" />
<glyph unicode="&#xed;" glyph-name="iacute" horiz-adv-x="228" d="M63 0T60 3T56 12V499Q56 504 59 507T68 511H160Q165 511 168 508T172 499V12Q172 7 169 4T160 0H68Q63 0 60 3ZM60 575T58 579T59 589L114 692Q118 700 129 700H208Q215 700 217 696T216 685L147
583Q142 575 133 575H67Q60 575 58 579Z" />
<glyph unicode="&#xee;" glyph-name="icircumflex" horiz-adv-x="228" d="M63 0T60 3T56 12V499Q56 504 59 507T68 511H160Q165 511 168 508T172 499V12Q172 7 169 4T160 0H68Q63 0 60 3ZM-30 573T-32 577T-30 588L46 693Q51 700 60 700H165Q174 700 179 693L255
588Q258 584 258 580Q258 573 248 573H178Q169 573 164 581L117 648Q115 650 113 650T110 648L63 581Q58 573 49 573H-22Q-30 573 -32 577Z" />
<glyph unicode="&#xef;" glyph-name="idieresis" horiz-adv-x="228" d="M63 0T60 3T56 12V499Q56 504 59 507T68 511H160Q165 511 168 508T172 499V12Q172 7 169 4T160 0H68Q63 0 60 3ZM178 586T158 606T138 657Q138 688 158 708T209 728Q240 728 259 708T279
657Q279 626 259 606T209 586Q178 586 158 606ZM-12 586T-32 606T-52 657Q-52 688 -32 708T19 728Q50 728 69 708T89 657Q89 626 69 606T19 586Q-12 586 -32 606Z" />
<glyph unicode="&#xf0;" glyph-name="eth" horiz-adv-x="543" d="M489 309T489 238Q489 164 476 126Q454 66 399 29T268 -8Q194 -8 139 28T62 126Q48 167 48 237Q48 309 62 348Q75 389 106 417T180 455Q215 465 255 465Q310 465 340 448Q343 447 344 448T344 452Q326
499 294 544Q293 546 292 546T288 546L191 519L187 518Q179 518 176 528L166 568L165 572Q165 579 174 582L243 601Q248 603 245 608Q213 643 169 685Q164 690 164 694Q164 696 167 698T174 700H272Q280 700 287 693L340 632Q344 628 347 630L429 653L433 654Q441
654 444 644L454 605L455 601Q455 593 446 590L394 576Q392 575 391 573T391 570Q427 521 449 472T479 362Q489 309 489 238ZM372 176T372 234Q372 291 363 313Q354 346 329 365T268 385Q232 385 207 366T173 313Q165 289 165 234Q165 180 174 153Q183 119 208
100T268 80Q303 80 328 100T363 153Q372 176 372 234Z" />
<glyph unicode="&#xf1;" glyph-name="ntilde" horiz-adv-x="544" d="M388 519T436 471T485 340V12Q485 7 482 4T473 0H381Q376 0 373 3T369 12V316Q369 362 343 390T274 419Q231 419 205 391T178 317V12Q178 7 175 4T166 0H74Q69 0 66 3T62 12V499Q62 504 65 507T74
511H166Q171 511 174 508T178 499V467Q178 464 180 463T183 465Q224 519 307 519Q388 519 436 471ZM320 584T307 588T274 603Q271 605 260 610T240 618T224 621Q207 621 195 616T171 598Q166 593 161 593Q157 593 154 597L122 631Q114 639 120 647Q136 674 161
689T218 704Q238 704 252 699T289 681Q308 671 318 667T339 663Q369 663 389 688Q394 693 398 693Q403 693 406 689L435 655Q441 648 438 640Q425 614 399 599T339 584Q320 584 307 588Z" />
<glyph unicode="&#xf2;" glyph-name="ograve" horiz-adv-x="545" d="M200 -8T144 32T64 143Q47 197 47 257Q47 321 63 371Q86 441 143 480T280 519Q356 519 411 480T490 372Q508 324 508 258Q508 195 491 144Q468 73 412 33T279 -8Q200 -8 144 32ZM316 92T342
113T381 172Q391 205 391 256Q391 310 381 340Q370 378 343 398T277 419Q240 419 213 399T174 340Q164 305 164 256Q164 207 174 172Q185 134 212 113T279 92Q316 92 342 113ZM316 585T316 583Q316 575 306 575H240Q231 575 226 583L157 685Q155 689 155 692Q155
700 165 700H244Q255 700 259 692L314 589Q316 585 316 583Z" />
<glyph unicode="&#xf3;" glyph-name="oacute" horiz-adv-x="545" d="M200 -8T144 32T64 143Q47 197 47 257Q47 321 63 371Q86 441 143 480T280 519Q356 519 411 480T490 372Q508 324 508 258Q508 195 491 144Q468 73 412 33T279 -8Q200 -8 144 32ZM316 92T342
113T381 172Q391 205 391 256Q391 310 381 340Q370 378 343 398T277 419Q240 419 213 399T174 340Q164 305 164 256Q164 207 174 172Q185 134 212 113T279 92Q316 92 342 113ZM218 575T216 579T217 589L272 692Q276 700 287 700H366Q373 700 375 696T374 685L305
583Q300 575 291 575H225Q218 575 216 579Z" />
<glyph unicode="&#xf4;" glyph-name="ocircumflex" horiz-adv-x="545" d="M200 -8T144 32T64 143Q47 197 47 257Q47 321 63 371Q86 441 143 480T280 519Q356 519 411 480T490 372Q508 324 508 258Q508 195 491 144Q468 73 412 33T279 -8Q200 -8 144 32ZM316 92T342
113T381 172Q391 205 391 256Q391 310 381 340Q370 378 343 398T277 419Q240 419 213 399T174 340Q164 305 164 256Q164 207 174 172Q185 134 212 113T279 92Q316 92 342 113ZM128 573T126 577T128 588L204 693Q209 700 218 700H323Q332 700 337 693L413 588Q416
584 416 580Q416 573 406 573H336Q327 573 322 581L275 648Q273 650 271 650T268 648L221 581Q216 573 207 573H136Q128 573 126 577Z" />
<glyph unicode="&#xf5;" glyph-name="otilde" horiz-adv-x="545" d="M200 -8T144 32T64 143Q47 197 47 257Q47 321 63 371Q86 441 143 480T280 519Q356 519 411 480T490 372Q508 324 508 258Q508 195 491 144Q468 73 412 33T279 -8Q200 -8 144 32ZM316 92T342
113T381 172Q391 205 391 256Q391 310 381 340Q370 378 343 398T277 419Q240 419 213 399T174 340Q164 305 164 256Q164 207 174 172Q185 134 212 113T279 92Q316 92 342 113ZM316 584T303 588T270 603Q267 605 256 610T236 618T220 621Q203 621 191 616T167 598Q162
593 157 593Q153 593 150 597L118 631Q110 639 116 647Q132 674 157 689T214 704Q234 704 248 699T285 681Q304 671 314 667T335 663Q365 663 385 688Q390 693 394 693Q399 693 402 689L431 655Q437 648 434 640Q421 614 395 599T335 584Q316 584 303 588Z" />
<glyph unicode="&#xf6;" glyph-name="odieresis" horiz-adv-x="545" d="M200 -8T144 32T64 143Q47 197 47 257Q47 321 63 371Q86 441 143 480T280 519Q356 519 411 480T490 372Q508 324 508 258Q508 195 491 144Q468 73 412 33T279 -8Q200 -8 144 32ZM316 92T342
113T381 172Q391 205 391 256Q391 310 381 340Q370 378 343 398T277 419Q240 419 213 399T174 340Q164 305 164 256Q164 207 174 172Q185 134 212 113T279 92Q316 92 342 113ZM336 586T316 606T296 657Q296 688 316 708T367 728Q398 728 417 708T437 657Q437 626
417 606T367 586Q336 586 316 606ZM146 586T126 606T106 657Q106 688 126 708T177 728Q208 728 227 708T247 657Q247 626 227 606T177 586Q146 586 126 606Z" />
<glyph unicode="&#xf7;" glyph-name="divide" horiz-adv-x="491" d="M219 425T201 444T182 489Q182 514 200 532T245 551Q270 551 289 533T308 489Q308 463 290 444T245 425Q219 425 201 444ZM39 267T36 270T32 279V354Q32 359 35 362T44 366H446Q451 366 454
363T458 354V279Q458 274 455 271T446 267H44Q39 267 36 270ZM219 94T201 112T182 157Q182 183 200 201T245 219Q271 219 289 201T308 157Q308 131 290 113T245 94Q219 94 201 112Z" />
<glyph unicode="&#xf8;" glyph-name="oslash" horiz-adv-x="532" d="M451 430T452 427Q469 401 479 372Q497 324 497 258Q497 195 480 144Q457 73 401 33T268 -8Q212 -8 165 13Q161 14 158 11L123 -40Q120 -45 114 -45Q110 -45 106 -42L42 10Q37 15 37 19Q37 23
40 27L78 82Q79 85 78 89Q64 111 53 143Q36 192 36 257Q36 321 52 371Q75 441 132 480T269 519Q324 519 365 500Q369 499 372 502L408 554Q411 559 417 559Q420 559 425 556L489 505Q494 500 494 496Q494 493 491 488L452 433Q451 430 452 427ZM153 226T157 205Q157
201 159 201T163 203L305 406Q308 411 303 413Q287 419 266 419Q228 419 201 399T163 340Q153 305 153 256Q153 226 157 205ZM380 204T380 256Q380 290 376 313Q375 316 373 316T369 314L225 106Q222 101 227 99Q244 92 268 92Q305 92 331 113T369 172Q380 204
380 256Z" />
<glyph unicode="&#xf9;" glyph-name="ugrave" horiz-adv-x="544" d="M364 504T367 507T376 511H467Q472 511 475 508T479 499V12Q479 7 476 4T467 0H376Q371 0 368 3T364 12V44Q364 47 362 48T358 46Q317 -7 235 -7Q159 -7 108 37T56 162V499Q56 504 59 507T68
511H160Q165 511 168 508T172 499V195Q172 148 196 120T265 92Q310 92 337 120T364 195V499Q364 504 367 507ZM315 585T315 583Q315 575 305 575H239Q230 575 225 583L156 685Q154 689 154 692Q154 700 164 700H243Q254 700 258 692L313 589Q315 585 315 583Z"
/>
<glyph unicode="&#xfa;" glyph-name="uacute" horiz-adv-x="544" d="M364 504T367 507T376 511H467Q472 511 475 508T479 499V12Q479 7 476 4T467 0H376Q371 0 368 3T364 12V44Q364 47 362 48T358 46Q317 -7 235 -7Q159 -7 108 37T56 162V499Q56 504 59 507T68
511H160Q165 511 168 508T172 499V195Q172 148 196 120T265 92Q310 92 337 120T364 195V499Q364 504 367 507ZM217 575T215 579T216 589L271 692Q275 700 286 700H365Q372 700 374 696T373 685L304 583Q299 575 290 575H224Q217 575 215 579Z" />
<glyph unicode="&#xfb;" glyph-name="ucircumflex" horiz-adv-x="544" d="M364 504T367 507T376 511H467Q472 511 475 508T479 499V12Q479 7 476 4T467 0H376Q371 0 368 3T364 12V44Q364 47 362 48T358 46Q317 -7 235 -7Q159 -7 108 37T56 162V499Q56 504 59 507T68
511H160Q165 511 168 508T172 499V195Q172 148 196 120T265 92Q310 92 337 120T364 195V499Q364 504 367 507ZM127 573T125 577T127 588L203 693Q208 700 217 700H322Q331 700 336 693L412 588Q415 584 415 580Q415 573 405 573H335Q326 573 321 581L274 648Q272
650 270 650T267 648L220 581Q215 573 206 573H135Q127 573 125 577Z" />
<glyph unicode="&#xfc;" glyph-name="udieresis" horiz-adv-x="544" d="M364 504T367 507T376 511H467Q472 511 475 508T479 499V12Q479 7 476 4T467 0H376Q371 0 368 3T364 12V44Q364 47 362 48T358 46Q317 -7 235 -7Q159 -7 108 37T56 162V499Q56 504 59 507T68
511H160Q165 511 168 508T172 499V195Q172 148 196 120T265 92Q310 92 337 120T364 195V499Q364 504 367 507ZM335 586T315 606T295 657Q295 688 315 708T366 728Q397 728 416 708T436 657Q436 626 416 606T366 586Q335 586 315 606ZM145 586T125 606T105 657Q105
688 125 708T176 728Q207 728 226 708T246 657Q246 626 226 606T176 586Q145 586 125 606Z" />
<glyph unicode="&#xfd;" glyph-name="yacute" horiz-adv-x="489" d="M49 -199T47 -196T45 -187V-115Q45 -110 48 -107T57 -103H58Q99 -102 122 -95T160 -66T187 -3Q188 -1 187 3L22 498Q21 500 21 503Q21 512 31 512H129Q140 512 143 502L243 150Q244 147 246
147T249 150L349 502Q352 512 363 512H458Q464 512 466 509T467 498L291 -28Q266 -99 242 -134T177 -184T59 -199H52Q49 -199 47 -196ZM190 582T188 586T189 596L244 699Q248 707 259 707H338Q345 707 347 703T346 692L277 590Q272 582 263 582H197Q190 582 188
586Z" />
<glyph unicode="&#xfe;" glyph-name="thorn" horiz-adv-x="547" d="M499 338T499 256Q499 181 488 138Q470 71 420 32T302 -8Q225 -8 184 46Q182 48 180 48T178 44V-188Q178 -193 175 -196T166 -200H74Q69 -200 66 -197T62 -188V688Q62 693 65 696T74 700H166Q171
700 174 697T178 688V472Q178 469 180 468T184 470Q223 519 298 519Q367 519 416 482T484 384Q499 338 499 256ZM374 180T376 198T378 256Q378 295 376 313T368 347Q359 379 334 399T271 419Q236 419 213 401T179 352Q178 350 178 346V167Q178 163 179 161Q189
130 212 111T271 92Q308 92 334 112T368 164Q374 180 376 198Z" />
<glyph unicode="&#xff;" glyph-name="ydieresis" horiz-adv-x="489" d="M49 -199T47 -196T45 -187V-115Q45 -110 48 -107T57 -103H58Q99 -102 122 -95T160 -66T187 -3Q188 -1 187 3L22 498Q21 500 21 503Q21 512 31 512H129Q140 512 143 502L243 150Q244 147 246
147T249 150L349 502Q352 512 363 512H458Q464 512 466 509T467 498L291 -28Q266 -99 242 -134T177 -184T59 -199H52Q49 -199 47 -196ZM308 593T288 613T268 664Q268 695 288 715T339 735Q370 735 389 715T409 664Q409 633 389 613T339 593Q308 593 288 613ZM118
593T98 613T78 664Q78 695 98 715T149 735Q180 735 199 715T219 664Q219 633 199 613T149 593Q118 593 98 613Z" />
<glyph unicode="&#x2013;" glyph-name="endash" horiz-adv-x="467" d="M39 233T36 236T32 245V321Q32 326 35 329T44 333H423Q428 333 431 330T435 321V245Q435 240 432 237T423 233H44Q39 233 36 236Z" />
<glyph unicode="&#x2014;" glyph-name="emdash" horiz-adv-x="668" d="M39 234T36 237T32 246V321Q32 326 35 329T44 333H624Q629 333 632 330T636 321V246Q636 241 633 238T624 234H44Q39 234 36 237Z" />
<glyph unicode="&#x2018;" glyph-name="quoteleft" horiz-adv-x="181" d="M8 482T6 486T6 496L84 691Q87 700 98 700H167Q173 700 175 697T177 687L121 492Q118 482 107 482H15Q8 482 6 486Z" />
<glyph unicode="&#x2019;" glyph-name="quoteright" horiz-adv-x="181" d="M173 700T175 696T175 686L96 491Q93 482 82 482H14Q8 482 6 485T4 495L60 690Q63 700 74 700H166Q173 700 175 696Z" />
<glyph unicode="&#x201a;" glyph-name="quotesinglbase" horiz-adv-x="600" d="M49 -91T50 -78L87 146Q88 157 100 157H180Q193 157 190 144L131 -81Q128 -91 117 -91H61Q49 -91 50 -78Z" />
<glyph unicode="&#x201c;" glyph-name="quotedblleft" horiz-adv-x="329" d="M9 482T6 485T5 496L76 690Q79 700 89 700H154Q168 700 165 687L117 492Q114 482 103 482H15Q9 482 6 485ZM170 482T167 485T166 496L237 690Q240 700 250 700H315Q329 700 326 687L278
492Q275 482 264 482H176Q170 482 167 485Z" />
<glyph unicode="&#x201d;" glyph-name="quotedblright" horiz-adv-x="329" d="M158 700T161 697T162 686L92 492Q89 482 79 482H14Q0 482 3 495L51 690Q54 700 65 700H152Q158 700 161 697ZM329 700T324 686L253 492Q250 482 239 482H174Q160 482 163 495L212
690Q215 700 226 700H314Q329 700 324 686Z" />
<glyph unicode="&#x201e;" glyph-name="quotedblbase" horiz-adv-x="344" d="M158 128T161 125T162 114L92 -80Q89 -90 79 -90H14Q0 -90 3 -77L51 118Q54 128 65 128H152Q158 128 161 125ZM329 128T324 114L253 -80Q250 -90 239 -90H174Q160 -90 163 -77L212 118Q215
128 226 128H314Q329 128 324 114Z" />
<glyph unicode="&#x2022;" glyph-name="bullet" horiz-adv-x="314" d="M124 148T95 165T49 210T32 273Q32 325 68 361T158 397Q209 397 245 361T281 273Q281 240 265 211T220 165T158 148Q124 148 95 165Z" />
<glyph unicode="&#x2039;" glyph-name="guilsinglleft" horiz-adv-x="345" d="M265 118T265 115Q265 107 255 107H170Q161 107 156 115L51 273Q48 278 48 281Q48 286 51 289L156 447Q161 455 170 455H255Q262 455 264 451T263 440L156 284Q155 281 156 278L263
122Q265 118 265 115Z" />
<glyph unicode="&#x203a;" glyph-name="guilsinglright" horiz-adv-x="368" d="M84 107T82 111T83 122L189 278Q191 281 189 284L83 440Q81 444 81 447Q81 455 91 455H175Q184 455 189 447L294 289Q297 286 297 281Q297 278 294 273L189 115Q184 107 175 107H91Q84
107 82 111Z" />
</font>
</defs>
</svg>
